<?xml version="1.0" standalone="no"?> 
<!DOCTYPE svg PUBLIC "-//W3C//DTD SVG 1.1//EN" "http://www.w3.org/Graphics/SVG/1.1/DTD/svg11.dtd" >
<svg xmlns="http://www.w3.org/2000/svg">
<defs>
  <font id="cryptocurrency-icons" horiz-adv-x="32">
    <font-face font-family="cryptocurrency-icons"
      units-per-em="128" ascent="128"
      descent="0" />
    <missing-glyph horiz-adv-x="0" />
    <glyph glyph-name="act"
      unicode="&#xEA01;"
      horiz-adv-x="128" d=" M64 0C28.652 0 0 28.652 0 64S28.652 128 64 128S128 99.348 128 64S99.348 0 64 0zM55.08 102A3.4800000000000004 3.4800000000000004 0 0 1 52.044 100.224L24.42 50.948A3.4800000000000004 3.4800000000000004 0 0 1 24.42 47.548L33.26 31.78A3.4800000000000004 3.4800000000000004 0 0 1 36.292 30H91.708A3.4800000000000004 3.4800000000000004 0 0 1 94.744 31.78L103.58 47.548A3.4800000000000004 3.4800000000000004 0 0 1 103.58 50.948L75.956 100.224A3.4800000000000004 3.4800000000000004 0 0 1 72.92 102H55.08zM64 82.396L82.612 49.248H45.388L64 82.396z" />
    <glyph glyph-name="ada"
      unicode="&#xEA02;"
      horiz-adv-x="128" d=" M64 0C28.652 0 0 28.652 0 64S28.652 128 64 128S128 99.348 128 64S99.348 0 64 0zM62.9 103.76C61.34 103.152 60.94 100.932 62.156 99.808C63.304 98.636 65.544 99.048 66.136 100.58C67.156 102.464 64.816 104.748 62.896 103.764zM42.28 101.576C40.66 101.152 40.48 98.64 42.052 98.04C43.24 97.4 44.924 98.396 44.8 99.748C44.92 101 43.444 102.048 42.28 101.576zM84.512 98.004C85.752 97.692 86.672 98.684 86.96 99.764C86.76 101.032 85.512 102.252 84.156 101.604C82.404 101.036 82.692 98.22 84.512 98.004zM46.972 92.944C45.148 92.024 44.896 89.288 46.552 88.096C48.264 86.576 51.296 87.88 51.396 90.124C51.696 92.352 48.916 94.156 46.972 92.944zM76.692 91.656C75.608 89.512 77.796 87.056 80.104 87.48C81.844 88.048 83.048 90.116 82.068 91.784C81.08 93.928 77.56 93.86 76.692 91.656zM60.416 87.604C60.312 86.06 61.436 84.796 62.768 84.152C63.64 84.1 64.588 83.936 65.388 84.376C67.14 85.136 68.004 87.424 67.032 89.088C66.512 90.288 65.192 90.8 63.98 91.04C62.148 90.908 60.396 89.5 60.416 87.604zM29.752 84.844C28.2 84.144 27.984 81.78 29.352 80.796C30.64 79.748 32.888 80.416 33.256 82.06C33.932 83.96 31.532 85.924 29.752 84.848zM95.6 84.852C94.048 83.916 94.22 81.42 95.868 80.692C97.364 79.812 99.52 81.1 99.416 82.808C99.596 84.68 97.108 86.004 95.6 84.848zM69.04 81.448C65.936 80.52 64.096 76.816 65.36 73.856C66.472 70.548 70.868 69.012 73.88 70.824C76.78 72.356 77.776 76.424 75.904 79.092C74.488 81.276 71.528 82.332 69.04 81.448zM54.428 81.156C51.488 79.864 50.136 76.052 51.66 73.244C53.02 70.344 56.98 69.152 59.788 70.724C62.592 72.12 63.804 75.884 62.236 78.588C60.904 81.364 57.188 82.44 54.428 81.156zM39.8 76.24C39.396 74.184 41.26 72.096 43.392 72.28C45.328 72.268 46.74 74.024 46.86 75.82A3.912 3.912 0 0 1 43.38 79.248C41.688 79.128 40.012 77.988 39.8 76.24zM83.008 78.864C80.66 77.776 80.488 74.176 82.748 72.896C84.924 71.36 88.284 73.204 88.136 75.824C88.232 78.296 85.196 80.116 83.008 78.864zM48.488 69.636C45.016 68.812 42.984 64.612 44.656 61.48C46.116 58.064 51.16 57.056 53.896 59.56C56.032 61.268 56.592 64.504 55.22 66.832C53.964 69.144 51.04 70.328 48.484 69.636zM76.196 69.648C72.7 68.708 70.852 64.348 72.688 61.264C74.208 58.28 78.476 57.28 81.232 59.184C83.86 60.828 84.704 64.632 82.936 67.18C81.6 69.408 78.68 70.348 76.196 69.648zM32.036 66.744C29.916 66.152 29.288 63.128 30.988 61.772C32.44 60.324 35.252 61.052 35.8 63.012C36.692 65.168 34.244 67.564 32.036 66.744zM91.912 63.616C92.28 62.776 92.724 61.896 93.592 61.464C95.448 60.46 98.068 61.912 97.928 64.052C98.048 65.676 96.576 66.876 95.064 67.112A3.344 3.344 0 0 1 91.912 63.616zM21.176 65.68C20.076 65.188 19.6 63.72 20.4 62.764C21.304 61.392 23.772 62.024 23.84 63.668C24.148 65.12 22.504 66.252 21.176 65.68zM104.972 65.716C103.412 64.896 104.024 62.068 105.912 62.236C107.256 62.036 108.408 63.648 107.78 64.824C107.408 65.9 105.908 66.368 104.972 65.716zM55.704 57.824C53.088 57.264 51.072 54.82 51.08 52.188C50.988 49.44 53.16 46.816 55.928 46.376C59.508 45.552 63.208 48.724 62.98 52.304C62.96 55.848 59.2 58.716 55.7 57.824zM69.552 57.828C67.448 57.316 65.664 55.608 65.2 53.508C64.28 50.36 66.712 46.796 70.012 46.376C73.516 45.68 77.104 48.748 76.916 52.26C76.972 55.884 73.1 58.804 69.556 57.828zM42.848 55.648C40.196 55.384 38.796 51.876 40.668 49.96C42.268 47.96 45.884 48.624 46.612 51.072C47.608 53.364 45.304 56.06 42.852 55.648zM83.464 55.54C80.82 54.712 80.376 50.74 82.804 49.396C84.944 47.892 88.264 49.668 88.176 52.24C88.344 54.58 85.656 56.44 83.464 55.54zM94.816 44.34C95.396 42.748 97.816 42.368 98.884 43.7C99.672 44.416 99.476 45.528 99.36 46.46C98.796 47.036 98.176 47.72 97.292 47.704C95.516 47.996 93.96 45.912 94.816 44.34zM29.744 47.268C28.164 46.476 28.108 44 29.636 43.132C31.06 42.172 33.22 43.136 33.416 44.824C33.792 46.732 31.404 48.352 29.744 47.264zM62.516 43.736C59.9 42.908 59.508 38.964 61.864 37.624C63.988 36.064 67.412 37.864 67.248 40.464C67.456 42.816 64.688 44.676 62.516 43.736zM47.34 40.252C46.036 39.772 45.504 38.356 45.48 37.088C45.928 35.924 46.832 34.696 48.22 34.668C49.9 34.42 51.556 35.844 51.5 37.516C51.668 39.556 49.188 41.208 47.34 40.252zM78.084 40.22C76.228 39.288 76.02 36.472 77.732 35.3C79.504 33.804 82.56 35.26 82.512 37.54C82.692 39.716 79.988 41.38 78.084 40.22zM83.432 27.22C84.3 25.756 86.832 26.276 86.996 27.98C87.228 29.244 86.06 30.06 84.956 30.28C83.58 29.992 82.584 28.476 83.432 27.216zM40.988 28.312C41.108 26.876 42.7 25.632 44.068 26.54C45.592 27.34 45.076 29.92 43.336 30.04C42.14 30.3 41.324 29.308 40.988 28.312zM61.468 27.164C60.856 25.672 62.32 23.868 63.94 24.056C64.812 24.036 65.488 24.648 66.012 25.256C66.112 25.668 66.216 26.084 66.332 26.496C66.116 27.288 65.868 28.216 65.02 28.576C63.74 29.36 61.8 28.64 61.464 27.164z" />
    <glyph glyph-name="adx"
      unicode="&#xEA03;"
      horiz-adv-x="128" d=" M64 0C28.652 0 0 28.652 0 64S28.652 128 64 128S128 99.348 128 64S99.348 0 64 0zM46.348 93.592L36 82.56L53.44 64.104L36 45.28L46.348 34.412L64 52.832L81.22 34.416L92 45.588L74.416 64.004L92 82.56L81.22 93.588L64 75.168L46.348 93.592zM47.768 95.096L56.272 86.036L63.928 94.492L71.584 86.036L80.088 95.096L63.928 112L47.768 95.096zM47.768 32.904L63.928 16L80.088 32.904L71.584 41.964L63.928 33.508L56.272 41.964L47.768 32.904z" />
    <glyph glyph-name="ae"
      unicode="&#xEA04;"
      horiz-adv-x="128" d=" M64 0C28.652 0 0 28.652 0 64S28.652 128 64 128S128 99.348 128 64S99.348 0 64 0zM39.008 84C29.116 83.304 20.644 75.088 20 65.516V62.376C20.68 52.784 29.268 44.664 39.148 44H42.36C50.2 44.688 56.792 49.66 61.544 55.448C60.384 57.148 59.212 58.844 58.008 60.512C54.952 56 50.968 51.744 45.6 49.872C40.768 48.12 35.16 49.244 31.14 52.256C25.772 56.056 23.82 63.428 26.22 69.372C28.948 76.588 38.1 80.836 45.592 78.12C51.652 75.916 55.392 70.46 59.056 65.608C63.312 60.12 66.832 53.956 72.316 49.464C76.092 46.256 80.94 44.4 85.928 44H88.912C97.016 44.72 104.428 50.136 106.972 57.668A241.548 241.548 0 0 1 101.416 57.644C97.784 50.228 87.444 46.64 80.052 51.028C69.824 57.096 65.408 68.604 57.372 76.756C53.5 80.716 48.276 83.464 42.624 84H39.008zM85.728 84C77.832 83.268 71.288 78.188 66.596 72.316C67.696 70.688 68.832 69.08 69.976 67.488C72.948 71.788 76.804 75.812 81.924 77.648C88.348 80.088 96.384 77.788 100.184 72.168C101.744 70.016 102.344 67.412 102.8 64.868C96.304 64.828 89.812 64.868 83.308 64.852C83.316 63.412 83.316 61.984 83.308 60.544C91.536 60.552 99.772 60.504 108 60.58V65.5C107.18 75.088 98.7 83.372 88.728 84H85.728z" />
    <glyph glyph-name="aion"
      unicode="&#xEA05;"
      horiz-adv-x="128" d=" M64 0C28.652 0 0 28.652 0 64S28.652 128 64 128S128 99.348 128 64S99.348 0 64 0zM63.884 35.4C79.712 35.4 92.588 48.196 92.588 63.92C92.588 79.648 79.712 92.44 63.884 92.44C48.056 92.44 35.18 79.648 35.18 63.92C35.18 48.196 48.06 35.4 63.884 35.4zM63.884 86.856C76.612 86.856 86.964 76.568 86.964 63.92C86.964 51.276 76.612 40.988 63.884 40.988C51.16 40.988 40.804 51.276 40.804 63.92C40.804 76.568 51.16 86.856 63.884 86.856zM83.984 96.516L86.928 101.276A44.212 44.212 0 0 1 63.888 107.732C56.392 107.732 48.992 105.828 42.488 102.232L45.22 97.348A38.68 38.68 0 0 0 63.884 102.14C71.004 102.14 77.952 100.196 83.984 96.516zM92.364 30.476A43.644 43.644 0 0 1 107.972 63.92H102.348A38.076 38.076 0 0 0 88.728 34.744L92.364 30.476zM63.884 20.116C70.932 20.116 77.948 21.808 84.164 25.012L81.572 29.972A38.232 38.232 0 0 0 63.884 25.7A38.668 38.668 0 0 0 39.404 34.44L35.82 30.136A44.332 44.332 0 0 1 63.884 20.112zM101.404 74.3L105.916 75.54A42.84 42.84 0 0 1 97.416 91.644L93.816 88.664A38.232 38.232 0 0 0 101.404 74.3zM27.44 40.096L31.352 42.656A38.348 38.348 0 0 0 24.948 63.92A38.256 38.256 0 0 0 36.812 91.728L33.556 95.076A42.868 42.868 0 0 1 20.264 63.92C20.264 55.412 22.744 47.172 27.436 40.096z M101.4 74.3A38.232 38.232 0 0 1 93.816 88.66L97.416 91.644A42.84 42.84 0 0 0 105.916 75.544L101.404 74.3zM27.44 40.096A42.968 42.968 0 0 0 20.268 63.92C20.268 75.768 24.988 86.832 33.56 95.076L36.816 91.728A38.256 38.256 0 0 1 24.952 63.92C24.952 56.324 27.168 48.972 31.352 42.656L27.44 40.096z" />
    <glyph glyph-name="amp"
      unicode="&#xEA06;"
      horiz-adv-x="128" d=" M64 0C28.652 0 0 28.652 0 64S28.652 128 64 128S128 99.348 128 64S99.348 0 64 0zM33.212 80.172C29.504 80.172 27.172 78.388 26.228 74.824C26.084 73.732 26.136 72.624 26.392 71.496C26.648 70.368 27.084 69.348 27.7 68.44C28.32 67.532 29.12 66.82 30.1 66.312C31.084 65.804 32.268 65.584 33.648 65.656A14.28 14.28 0 0 0 43.688 61.184A13.680000000000001 13.680000000000001 0 0 0 47.836 51.144C47.836 49.104 48.544 47.376 49.964 45.956C51.384 44.54 53.112 43.828 55.148 43.828C57.108 43.828 58.804 44.54 60.22 45.956C61.64 47.376 62.348 49.104 62.348 51.14C62.348 53.032 61.676 54.688 60.332 56.108A6.840000000000001 6.840000000000001 0 0 1 55.476 58.348C51.62 58.272 48.128 59.62 44.996 62.384C42.16 65.144 40.668 68.604 40.524 72.752C40.38 76.752 41.796 80.244 44.78 83.232C47.764 86.212 51.328 87.632 55.476 87.484A6.840000000000001 6.840000000000001 0 0 1 60.332 89.724A7.120000000000001 7.120000000000001 0 0 1 62.348 94.796C62.348 96.76 61.64 98.452 60.22 99.872A6.927999999999999 6.927999999999999 0 0 1 55.148 102C53.108 102 51.384 101.292 49.964 99.872A6.927999999999999 6.927999999999999 0 0 1 47.836 94.796C47.836 90.94 46.452 87.52 43.688 84.536C40.848 81.7 37.504 80.244 33.648 80.172H33.212zM33.312 58.344C31.272 58.344 29.548 57.632 28.128 56.216A6.927999999999999 6.927999999999999 0 0 1 26 51.14C26 49.028 26.744 47.264 28.24 45.848C29.728 44.428 31.528 43.756 33.64 43.828A14.28 14.28 0 0 0 43.68 39.352C46.44 36.588 47.824 33.204 47.824 29.204C47.824 27.24 48.516 25.548 49.9 24.128C51.28 22.708 52.956 22 54.92 22H55.136C57.1 22 58.792 22.708 60.212 24.128C61.632 25.548 62.34 27.24 62.34 29.204C62.34 33.204 63.72 36.588 66.488 39.352C69.176 42.192 72.56 43.684 76.636 43.828H76.964C80.6 43.828 82.924 45.648 83.948 49.284C84.456 51.468 84.02 53.54 82.636 55.504C81.256 57.544 79.252 58.488 76.636 58.344C72.708 58.416 69.324 59.872 66.488 62.708C63.804 65.604 62.42 68.912 62.344 72.628L62.348 72.968C62.348 76.9 63.732 80.248 66.496 83.008A14.28 14.28 0 0 0 76.536 87.488C80.684 87.556 84.212 86.14 87.12 83.228C90.104 80.172 91.56 76.644 91.488 72.644C91.56 70.676 92.304 69.024 93.724 67.676A7.120000000000001 7.120000000000001 0 0 1 98.796 65.656C100.764 65.656 102.452 66.368 103.876 67.784C105.292 69.204 106 70.932 106 72.968C106 75.008 105.24 76.736 103.708 78.152C102.18 79.572 100.436 80.244 98.468 80.172C94.544 80.244 91.16 81.7 88.32 84.536C85.56 87.52 84.176 90.94 84.176 94.796V95.668C84.176 95.744 84.136 95.816 84.064 95.888V96.216C84.064 96.288 84.028 96.36 83.956 96.432V96.76L83.848 96.872V97.088L83.792 97.144C83.756 97.18 83.74 97.232 83.74 97.304V97.416C83.664 97.416 83.628 97.488 83.628 97.636L83.52 97.744L83.464 97.8C83.428 97.836 83.412 97.888 83.412 97.96V98.072C83.34 98.072 83.3 98.108 83.3 98.18L83.248 98.236C83.208 98.272 83.192 98.324 83.192 98.396H83.084V98.508L82.976 98.616V98.84L82.864 98.948L82.756 99.056L82.7 99.112C82.664 99.148 82.648 99.204 82.648 99.272L82.54 99.384C82.464 99.384 82.428 99.424 82.428 99.492L82.376 99.548C82.336 99.588 82.32 99.64 82.32 99.712H82.212V99.82C82.136 99.82 82.1 99.86 82.1 99.928L81.992 100.04C81.92 100.04 81.848 100.076 81.776 100.148L81.664 100.256H81.556V100.368C81.484 100.368 81.448 100.404 81.448 100.476C81.3 100.476 81.228 100.516 81.228 100.584H81.12V100.696L81.008 100.804C80.864 100.804 80.792 100.84 80.792 100.912H80.684L80.572 101.02C80.5 101.02 80.448 101.04 80.412 101.076A18.46 18.46 0 0 1 80.356 101.132L80.248 101.24H80.136V101.348H79.92L79.808 101.46C79.736 101.46 79.664 101.496 79.592 101.568H79.372L79.264 101.676H79.044L78.936 101.784H78.72C78.644 101.784 78.592 101.804 78.556 101.84L78.5 101.896H78.284C78.208 101.896 78.156 101.912 78.12 101.948L78.064 102.004H75.772C75.772 101.932 75.736 101.896 75.664 101.896H75.336L75.228 101.784H74.9L74.792 101.676H74.572L74.464 101.568H74.244V101.46H74.028L73.916 101.348H73.808V101.24H73.588L73.48 101.132H73.372C73.372 101.056 73.332 101.02 73.264 101.02C73.188 101.02 73.152 100.984 73.152 100.912H73.044L72.936 100.804L72.824 100.696C72.752 100.696 72.716 100.656 72.716 100.584H72.5V100.476L72.388 100.368C72.316 100.368 72.28 100.328 72.28 100.256H72.06L71.952 100.148C71.952 100.076 71.916 100.04 71.844 100.04V99.928H71.736V99.82L71.624 99.712C71.552 99.712 71.516 99.672 71.516 99.604L71.408 99.492L71.296 99.384C70.208 98.076 69.66 96.62 69.66 95.02C69.732 90.944 68.28 87.416 65.296 84.432C62.496 81.636 59.224 80.216 55.468 80.168A8.22 8.22 0 0 1 54.896 80.168L54.712 80.176C54.552 80.164 54.392 80.148 54.232 80.124A6.983999999999999 6.983999999999999 0 0 1 49.952 78.044A6.927999999999999 6.927999999999999 0 0 1 47.824 72.972C47.824 71.008 48.5 69.316 49.844 67.896A6.840000000000001 6.840000000000001 0 0 1 55.052 65.66H55.148C58.964 65.628 62.308 64.244 65.176 61.512A13.832 13.832 0 0 0 69.652 51.36C69.724 47.288 68.304 43.796 65.396 40.884C62.556 37.976 59.176 36.52 55.248 36.52H54.92C50.92 36.52 47.496 37.976 44.66 40.884C41.82 43.868 40.44 47.36 40.516 51.364A7.028 7.028 0 0 1 38.276 56.272A6.892 6.892 0 0 1 33.312 58.348z" />
    <glyph glyph-name="ant"
      unicode="&#xEA07;"
      horiz-adv-x="128" d=" M31.86 57.608A86.112 86.112 0 0 0 25.996 71.824A74.184 74.184 0 0 0 24.156 78.808C31.404 84.76 39.956 89.856 49.148 94.12C52.592 95.72 55.936 97.112 59.092 98.3C61.052 99.036 62.692 99.604 63.98 100.02C65.308 99.588 66.9 99.036 68.86 98.3C72.02 97.108 75.36 95.72 78.804 94.12C88.004 89.852 96.556 84.76 103.804 78.812A87.16 87.16 0 0 0 96.392 58.232A73.84 73.84 0 0 0 88.952 46.488C76.508 47.376 77.264 54.888 77.264 54.888C77.264 55.188 77.264 55.488 77.32 55.784C77.32 55.784 77.92 61.692 83.128 61.692A3.6400000000000006 3.6400000000000006 0 0 0 85.068 61.26C87.792 59.796 86.02 57.06 86.02 57.06C89.432 57.6 93.66 61.396 92.98 68.036C92.296 74.676 84.328 78.092 84.328 78.092C84.576 79.612 84.328 80.124 84.328 80.124C67.416 90.288 54.244 88.092 54.244 88.092L57.516 84.84C57.188 84.868 56.836 84.868 56.508 84.868C42.788 84.38 31.82 72.944 31.82 58.876C31.82 58.436 31.836 58.016 31.86 57.608zM64 0C28.652 0 0 28.652 0 64S28.652 128 64 128S128 99.348 128 64S99.348 0 64 0zM108 80.392L107.096 81.032C99.728 87.232 91.016 92.552 81.608 97.016A136.648 136.648 0 0 1 65.272 103.6L64.84 103.74L63.972 104L62.7 103.6C58.368 102.212 52.628 100 46.352 97.016C36.932 92.54 28.208 87.216 20.832 81.008L20.48 80.708L20 80.308L20.208 79.156C20.168 79.316 20.388 78.196 20.588 77.3A90.824 90.824 0 0 1 28.148 56.488C31.752 49.46 36.148 43.316 41.22 38.192A57.256 57.256 0 0 1 62.684 24.46L63.156 24.3L63.996 24L64.852 24.328L65.3 24.488C73.332 27.36 80.54 31.968 86.768 38.216C91.816 43.288 96.216 49.448 99.84 56.512A90.68799999999999 90.68799999999999 0 0 1 106.116 72.312C106.988 75.292 107.696 78.404 107.8 79.272L108 80.392zM77.592 77.496L77.536 77.44C72.764 78.444 71.044 80.88 71.044 80.88C75.548 80.912 79.612 79.852 82.584 78.064C82.584 78.064 80.976 78.58 79.34 78.796C78.52 77.956 77.812 77.604 77.592 77.496z" />
    <glyph glyph-name="ardr"
      unicode="&#xEA08;"
      horiz-adv-x="128" d=" M64 0C28.652 0 0 28.652 0 64S28.652 128 64 128S128 99.348 128 64S99.348 0 64 0zM63.532 59.24L50 36L70.608 49.992L63.532 59.24zM64 104L24 36H45.82L74.908 86.104L64 104zM64 64.632L85.82 36H104L78.544 75.368L64 64.632z" />
    <glyph glyph-name="ark"
      unicode="&#xEA09;"
      horiz-adv-x="128" d=" M64 0C28.652 0 0 28.652 0 64S28.652 128 64 128S128 99.348 128 64S99.348 0 64 0zM63.788 74.612L108 28L63.984 100L20 28.436L63.788 74.612zM70.14 56.272V56.204L63.492 64.016L56.452 56.272H70.14zM43.74 43.564H83.176L75.184 51.744L51.504 51.644V51.608L43.744 43.66V43.564z" />
    <glyph glyph-name="ast"
      unicode="&#xEA0A;"
      horiz-adv-x="128" d=" M64 0C28.652 0 0 28.652 0 64S28.652 128 64 128S128 99.348 128 64S99.348 0 64 0zM64.04 104L28.38 67.884L24 63.44L25.54 62.08A70.496 70.496 0 0 1 30.472 58.116A57.07999999999999 57.07999999999999 0 0 1 46.604 50.068C52.244 48.268 58.124 47.384 64.04 47.384C68.72 47.384 73.38 47.944 77.924 49.064A57.1 57.1 0 0 1 96.308 57.232C97.688 58.152 99.068 59.192 100.372 60.236C101.12 60.836 101.832 61.436 102.5 62.076L104 63.436zM98.992 62.12C97.74 61.088 96.436 60.124 95.084 59.236A55.303999999999995 55.303999999999995 0 0 0 77.412 51.388A55.848 55.848 0 0 0 64.04 49.748A54.988 54.988 0 0 0 31.772 60.076C30.508 60.956 29.288 61.956 28.064 62.956L27.316 63.6L64 100.76L100.688 63.6C100.172 63.08 99.584 62.6 98.992 62.12zM38.872 64.04L37.096 63.28H39.268C51.116 63.28 62.732 59.956 72.836 53.672L72.956 53.592L73.116 53.632C79.716 54.832 86.024 57.32 91.692 60.956L92.248 61.316L91.692 61.636A55.731999999999985 55.731999999999985 0 0 1 63.412 69.324C54.96 69.284 46.612 67.484 38.872 64.044zM73.428 56.032A64.72 64.72 0 0 1 48.34 64.96A56.00800000000001 56.00800000000001 0 0 0 63.368 67C71.808 67 80.096 65.04 87.628 61.196A46.94 46.94 0 0 0 73.428 56.032zM86.644 48.144S80.804 44.464 78.596 43.38A55.02799999999999 55.02799999999999 0 0 0 54.652 36.212L52.128 36.052L64.04 24L80.96 41.136A95.52 95.52 0 0 1 86.64 48.144zM57.256 34.128C63.764 34.808 70.116 36.572 76.032 39.416L64.04 27.24z" />
    <glyph glyph-name="atm"
      unicode="&#xEA0B;"
      horiz-adv-x="128" d=" M80.668 53.192A17.476 17.476 0 0 1 87.012 76.324L74.12 100.572A17.476 17.476 0 0 1 50.484 107.796L49.988 107.532A17.476 17.476 0 0 1 42.764 83.9L46.588 76.708C46.876 76.884 47.168 77.052 47.468 77.212L47.964 77.476A17.476 17.476 0 0 0 71.6 70.252zM64 0C28.652 0 0 28.652 0 64S28.652 128 64 128S128 99.348 128 64S99.348 0 64 0zM80.668 53.192A17.752 17.752 0 0 0 79.788 52.688L79.292 52.428A17.476 17.476 0 0 0 55.656 59.652L46.588 76.708A17.476 17.476 0 0 1 40.244 53.58L53.132 29.34A17.476 17.476 0 0 1 76.764 22.116L77.26 22.38A17.476 17.476 0 0 1 84.488 46.012z" />
    <glyph glyph-name="bat"
      unicode="&#xEA0C;"
      horiz-adv-x="128" d=" M64 0C28.652 0 0 28.652 0 64S28.652 128 64 128S128 99.348 128 64S99.348 0 64 0zM24 34L104 34.092L64.204 102L24 34zM64.108 74.48L80.616 47.336H47.68L64.112 74.48z" />
    <glyph glyph-name="bay"
      unicode="&#xEA0D;"
      horiz-adv-x="128" d=" M64 0C28.652 0 0 28.652 0 64S28.652 128 64 128S128 99.348 128 64S99.348 0 64 0zM91.136 64.104C91.368 64.364 91.628 64.624 91.888 64.888C92.728 65.792 93.648 66.756 94.516 67.688A19.5 19.5 0 0 1 99.944 81.164C99.944 81.512 100 82.944 100 83.148C99.596 94.636 89.924 104 78.492 104H42.492V89.476H28V24H79.068C90.416 24 100 34.092 100 46.048C100.028 54.596 94.744 60.632 91.136 64.104zM79.068 31.32H35.216V82.212H42.496V38.552H78.176C81.12 38.552 83.748 40.332 84.872 43.072A7.328000000000001 7.328000000000001 0 0 1 83.312 51.036L70.584 63.928L83.516 77.024C85.596 79.124 86.2 82.244 85.076 84.984A7.232 7.232 0 0 1 78.376 89.504H49.736V96.736H78.52C86.144 96.736 92.552 90.524 92.812 82.972C92.812 82.652 92.752 81.396 92.752 81.368V81.224A12.216 12.216 0 0 0 89.32 72.736C88.424 71.8 87.5 70.812 86.664 69.936C85.248 68.448 84.036 67.164 83.456 66.58L80.856 64.016L83.428 61.416C83.776 61.068 84.208 60.66 84.728 60.164C87.728 57.364 92.784 52.7 92.784 46.108C92.812 38.232 86.404 31.32 79.068 31.32zM49.708 82.184L78.376 82.156L60.364 63.896L78.176 45.816H49.708z" />
    <glyph glyph-name="bcc"
      unicode="&#xEA0E;"
      horiz-adv-x="128" d=" M64 0C28.652 0 0 28.652 0 64S28.652 128 64 128S128 99.348 128 64S99.348 0 64 0zM29.404 50.72C29.432 40.392 35.764 30.996 45.428 27.568C55.148 24.112 63.956 25.944 71.548 33.024C72.296 33.724 72.7 33.712 73.352 33.008C74.468 31.808 75.632 30.644 76.82 29.512C77.468 28.9 77.692 28.348 77.48 27.38C76.752 24.008 78.448 20.724 81.52 19.188C84.332 17.784 87.952 18.468 90.168 20.82A7.4639999999999995 7.4639999999999995 0 0 1 91.212 29.672A7.408 7.408 0 0 1 82.996 33.12C82.164 32.912 81.64 33.064 81.08 33.644A139 139 0 0 1 76.78 37.944C76.168 38.528 76.084 38.984 76.464 39.784C81.488 50.336 79.088 61.92 70.272 69.608C69.46 70.312 69.552 70.688 70.204 71.4A3149.268 3149.268 0 0 1 86.3 89.056C86.94 89.768 87.52 90.008 88.516 89.8C93.428 88.78 98.268 92.528 98.58 97.504C98.812 101.224 96.94 104.392 93.532 106.044C90.636 107.444 86.628 106.804 84.204 104.544C81.548 102.064 80.724 98.316 82.132 94.848C82.404 94.176 82.576 93.728 81.98 93.084A4998.436 4998.436 0 0 1 64.708 74.152C64.296 73.696 63.964 73.536 63.348 73.8A19.444 19.444 0 0 1 58.204 75.216C57.272 75.336 57.156 75.756 57.164 76.54C57.204 79.248 57.236 81.952 57.152 84.66C57.12 85.74 57.42 86.356 58.38 86.964C61.092 88.684 62.26 92.012 61.42 95.072C60.588 98.112 57.772 100.404 54.688 100.552C51.248 100.712 48.26 98.672 47.136 95.388C46.068 92.28 47.26 88.828 50.176 86.924C51.012 86.38 51.32 85.804 51.3 84.828A166.532 166.532 0 0 1 51.3 76.708C51.328 75.696 51.032 75.348 49.992 75.156C37.856 72.88 29.372 62.768 29.404 50.716z" />
    <glyph glyph-name="bch"
      unicode="&#xEA0F;"
      horiz-adv-x="128" d=" M64 0C28.652 0 0 28.652 0 64S28.652 128 64 128S128 99.348 128 64S99.348 0 64 0zM84.944 85.236C81.836 93.124 74.056 93.836 64.992 92.076L61.764 103.328L54.916 101.364L58.056 90.404C56.256 89.892 54.428 89.328 52.608 88.764L49.448 99.796L42.6 97.836L45.824 86.584C44.348 86.128 42.904 85.684 41.48 85.276L41.472 85.308L32.024 82.604L34.124 75.288S39.152 76.836 39.096 76.716C41.868 77.516 43.236 76.16 43.896 74.848L47.576 62.028C47.764 62.08 48.016 62.148 48.312 62.188L47.588 61.98L52.736 44.02C52.864 43.112 52.748 41.572 50.812 41.012C50.92 40.96 45.832 39.588 45.832 39.588L46.816 31.016L55.732 33.576C57.388 34.048 59.028 34.488 60.636 34.936L63.9 23.556L70.74 25.516L67.516 36.776A262.96 262.96 0 0 1 73 38.296L76.212 27.084L83.06 29.048L79.808 40.408C91.132 44.372 98.36 49.584 96.26 60.688C94.572 69.624 89.36 72.336 82.372 72.032C85.764 75.192 87.228 79.468 84.944 85.236zM82.34 58.156C84.78 49.648 69.94 46.44 65.3 45.104L60.98 60.184C65.62 61.516 79.796 67.024 82.34 58.152zM73.052 78.516C75.268 70.776 62.864 68.196 59 67.088L55.08 80.764C58.944 81.872 70.736 86.584 73.052 78.516z" />
    <glyph glyph-name="bcn"
      unicode="&#xEA10;"
      horiz-adv-x="128" d=" M63.996 0.012C28.652 0.012 0 28.664 0 64.004C0 99.348 28.652 128 63.996 128C99.336 128 127.988 99.348 127.988 64.004C127.988 28.664 99.336 0.012 63.996 0.012zM93.748 60.984C91.228 63.768 87.604 65.496 82.868 66.168V66.268C87.016 66.94 90.276 68.64 92.492 71.36A14.867999999999999 14.867999999999999 0 0 1 95.94 80.976C95.94 86.82 94.06 90.792 90.164 93.916C86.268 97.036 80.42 98.064 72.496 98.064H42.572V70.212H25.388V59.544H72.296C75.988 59.544 78.76 59.284 80.592 57.808C82.424 56.332 83.36 54.424 83.36 51.604S82.436 46.376 80.592 44.864C78.752 43.356 75.976 42.36 72.296 42.36H56.2V50.656H42.572V31.692H73.48C81.34 31.692 87.348 33.744 91.516 36.932C95.68 40.12 97.636 44.828 97.636 50.608A15.24 15.24 0 0 1 93.748 60.984zM70.576 70.24H56.2V87.424H70.576C77.968 87.424 81.656 84.54 81.656 78.832S77.968 70.24 70.576 70.24z" />
    <glyph glyph-name="bco"
      unicode="&#xEA11;"
      horiz-adv-x="128" d=" M64 0C28.652 0 0 28.652 0 64S28.652 128 64 128S128 99.348 128 64S99.348 0 64 0zM56.488 44.696A8.072 8.072 0 0 1 55.456 40.736C55.456 36.276 59.068 32.644 63.592 32.476V30.996A3.54 3.54 0 0 1 60.328 27.504C60.328 25.568 61.936 24 63.92 24A3.548 3.548 0 0 1 67.512 27.504A3.532 3.532 0 0 1 64.572 30.956V32.496C68.94 32.82 72.384 36.384 72.384 40.736C72.384 42.176 72.004 43.536 71.336 44.716L77.472 48.168C78.96 46.08 81.44 44.712 84.244 44.712C87.076 44.712 89.576 46.104 91.06 48.228L93.112 47.068A3.424 3.424 0 0 1 92.816 45.672C92.816 43.736 94.424 42.168 96.408 42.168S100 43.736 100 45.672S98.392 49.18 96.408 49.18A3.6199999999999997 3.6199999999999997 0 0 1 93.62 47.884L91.564 49.044C92.16 50.16 92.496 51.424 92.496 52.764C92.496 57.184 88.844 60.776 84.328 60.816V67.288C88.788 67.328 92.388 70.872 92.388 75.236C92.388 76.516 92.076 77.728 91.524 78.8L93.524 80.072A3.616 3.616 0 0 1 96.408 78.66C98.392 78.66 100 80.232 100 82.168S98.392 85.672 96.408 85.672A3.548 3.548 0 0 1 92.816 82.168C92.816 81.728 92.9 81.304 93.056 80.912L91.032 79.628A8.188 8.188 0 0 1 84.244 83.184C81.376 83.184 78.856 81.736 77.404 79.552L71.284 82.996C71.848 84.088 72.168 85.324 72.168 86.628C72.168 90.916 68.736 94.42 64.408 94.668V97.02A3.536 3.536 0 0 1 67.512 100.496A3.548 3.548 0 0 1 63.92 104A3.548 3.548 0 0 1 60.328 100.496C60.328 98.72 61.676 97.256 63.428 97.02V94.668C59.1 94.42 55.668 90.916 55.668 86.628C55.668 85.328 55.988 84.096 56.548 83.008L50.416 79.608A8.192 8.192 0 0 1 43.672 83.104C40.924 83.104 38.492 81.772 37.02 79.736L34.94 80.896A3.424 3.424 0 0 1 35.18 82.168A3.548 3.548 0 0 1 31.592 85.672C29.608 85.672 28 84.104 28 82.168S29.608 78.66 31.592 78.66A3.616 3.616 0 0 1 34.464 80.06L36.504 78.924A7.759999999999999 7.759999999999999 0 0 1 35.532 75.156C35.532 70.876 39 67.38 43.348 67.212V60.996C38.884 60.828 35.316 57.244 35.316 52.844C35.316 51.416 35.692 50.076 36.356 48.908L34.432 47.82A3.616 3.616 0 0 1 31.592 49.18C29.608 49.18 28 47.608 28 45.672S29.608 42.168 31.592 42.168A3.548 3.548 0 0 1 35.184 45.672A3.424 3.424 0 0 1 34.92 46.992L36.876 48.1C38.392 46.032 40.872 44.688 43.676 44.688C46.472 44.688 48.948 46.028 50.464 48.088zM57.008 45.508L50.988 48.896C51.652 50.068 52.028 51.416 52.028 52.844C52.028 57.136 48.636 60.652 44.328 60.976V67.232C48.52 67.556 51.816 70.98 51.816 75.152A7.759999999999999 7.759999999999999 0 0 1 50.916 78.792L57.04 82.18C58.52 80.008 61.048 78.58 63.92 78.58C66.784 78.58 69.312 80.004 70.788 82.172L76.924 78.72A7.759999999999999 7.759999999999999 0 0 1 76.104 75.236C76.104 71.14 79.272 67.772 83.344 67.336V60.772C79.212 60.332 75.996 56.916 75.996 52.764C75.996 51.396 76.344 50.112 76.956 48.984L70.816 45.524A8.52 8.52 0 0 1 63.92 48.996A8.52 8.52 0 0 1 57.008 45.508zM43.672 48.572A4.328 4.328 0 0 0 39.296 52.844C39.296 55.204 41.256 57.116 43.672 57.116C46.092 57.116 48.052 55.204 48.052 52.844C48.052 50.484 46.092 48.572 43.672 48.572zM43.672 70.992C41.316 70.992 39.408 72.856 39.408 75.152S41.316 79.32 43.672 79.32C46.032 79.32 47.94 77.456 47.94 75.156S46.028 70.992 43.672 70.992zM63.92 82.412C61.532 82.412 59.6 84.3 59.6 86.628C59.6 88.96 61.532 90.848 63.92 90.848C66.304 90.848 68.24 88.96 68.24 86.628C68.24 84.3 66.304 82.412 63.92 82.412zM84.244 71.072A4.216 4.216 0 0 0 79.98 75.232C79.98 77.536 81.888 79.4 84.244 79.4S88.512 77.536 88.512 75.236S86.6 71.072 84.244 71.072zM84.244 48.548C81.86 48.548 79.924 50.436 79.924 52.764C79.924 55.096 81.86 56.984 84.244 56.984C86.632 56.984 88.564 55.096 88.564 52.764C88.564 50.436 86.632 48.548 84.244 48.548zM63.92 36.4C61.468 36.4 59.484 38.34 59.484 40.728S61.468 45.056 63.92 45.056C66.368 45.056 68.352 43.12 68.352 40.728S66.368 36.4 63.92 36.4zM63.92 52.32C70.528 52.32 75.88 57.548 75.88 63.996S70.528 75.676 63.92 75.676C57.312 75.676 51.956 70.444 51.956 63.996S57.312 52.316 63.916 52.316zM63.92 59.42C61.328 59.42 59.228 61.468 59.228 63.996S61.328 68.572 63.92 68.572C66.508 68.572 68.608 66.524 68.608 63.996S66.508 59.42 63.92 59.42z" />
    <glyph glyph-name="bdl"
      unicode="&#xEA12;"
      horiz-adv-x="128" d=" M64 0C28.652 0 0 28.652 0 64S28.652 128 64 128S128 99.348 128 64S99.348 0 64 0zM37.312 93.532C37.296 81.064 37.312 68.6 37.296 56.128C39.872 64.444 46.448 71.428 54.696 74.276C61.872 76.792 70.136 76.328 76.864 72.716C76.864 73.416 76.864 74.112 76.872 74.812C68.448 78.86 58.124 78.66 49.928 74.14C50.008 85.004 49.916 95.868 49.972 106.732C46.036 102.76 42.076 98.808 38.1 94.872C37.78 94.472 37.236 94.12 37.312 93.532zM90.872 46.884C90.912 62.584 90.824 78.288 90.912 93.988C86.592 98.328 82.272 102.676 77.912 106.972C78.032 104.936 77.996 102.896 77.992 100.86C77.984 84.64 78.048 68.42 78.024 52.204C77.996 49.06 78.316 45.776 77.036 42.804C75.024 37.564 69.596 33.884 63.972 34.024C58.124 33.96 52.592 38.044 50.844 43.608C48.884 49.248 51.112 55.964 56.028 59.348C60.496 62.588 66.928 62.728 71.556 59.74C73.896 58.276 75.664 56.068 76.856 53.6A1162.58 1162.58 0 0 0 76.856 71.528C69.556 75.548 60.376 75.848 52.836 72.296A26.996 26.996 0 0 1 39.764 59.284C37.392 54.188 36.62 48.324 37.76 42.808C39.072 35.84 43.356 29.52 49.272 25.628A26.788 26.788 0 0 1 83.284 29.268A26.608 26.608 0 0 1 90.872 46.884z" />
    <glyph glyph-name="bela"
      unicode="&#xEA13;"
      horiz-adv-x="128" d=" M33.188 81.728A35.744 35.744 0 0 1 28.432 63.856C28.432 44.056 44.452 28 64.216 28S100 44.052 100 63.856C100 83.656 83.98 99.712 64.216 99.712A35.564 35.564 0 0 1 46.212 94.848A9.664 9.664 0 0 1 28 90.312C28 86.584 30.104 83.344 33.188 81.728zM64 0C28.652 0 0 28.652 0 64S28.652 128 64 128S128 99.348 128 64S99.348 0 64 0zM64.216 46.216C54.496 46.216 46.616 54.112 46.616 63.856S54.496 81.496 64.216 81.496S81.816 73.596 81.816 63.856S73.936 46.216 64.216 46.216z" />
    <glyph glyph-name="blcn"
      unicode="&#xEA14;"
      horiz-adv-x="128" d=" M64 0C28.652 0 0 28.652 0 64S28.652 128 64 128S128 99.348 128 64S99.348 0 64 0zM31.6 100A3.5999999999999996 3.5999999999999996 0 0 1 28 96.4V71.6A3.5999999999999996 3.5999999999999996 0 0 1 31.6 68H56.4A3.5999999999999996 3.5999999999999996 0 0 1 60 71.6V96.4A3.5999999999999996 3.5999999999999996 0 0 1 56.4 100zM71.6 100A3.5999999999999996 3.5999999999999996 0 0 1 68 96.4V71.6A3.5999999999999996 3.5999999999999996 0 0 1 71.6 68H96.4A3.5999999999999996 3.5999999999999996 0 0 1 100 71.6V96.4A3.5999999999999996 3.5999999999999996 0 0 1 96.4 100zM71.6 60A3.5999999999999996 3.5999999999999996 0 0 1 68 56.4V31.6A3.5999999999999996 3.5999999999999996 0 0 1 71.6 28H96.4A3.5999999999999996 3.5999999999999996 0 0 1 100 31.6V56.4A3.5999999999999996 3.5999999999999996 0 0 1 96.4 60zM31.6 60A3.5999999999999996 3.5999999999999996 0 0 1 28 56.4V31.6A3.5999999999999996 3.5999999999999996 0 0 1 31.6 28H56.4A3.5999999999999996 3.5999999999999996 0 0 1 60 31.6V56.4A3.5999999999999996 3.5999999999999996 0 0 1 56.4 60z" />
    <glyph glyph-name="blk"
      unicode="&#xEA15;"
      horiz-adv-x="128" d=" M64 0C28.652 0 0 28.652 0 64S28.652 128 64 128S128 99.348 128 64S99.348 0 64 0zM92.4 83.48C92.212 95.136 78.796 98.12 78.796 98.12S86.324 93.056 86.516 82.804C86.704 72.552 82.656 68.552 82.656 68.552S92.588 71.828 92.4 83.48zM47.744 28.724V99.324L34 100V98.844S42.412 96.628 42.412 83.852V45.292C42.412 30.2 34 29.332 34 29.332V28.052zM69.712 28.004C75.688 28.048 84.868 32.236 86.564 43.652C88.256 55.068 83.884 60.316 81.62 62.244C79.36 64.168 72.96 66.384 72.96 66.384S77.192 68.552 79.124 71.684S82.564 80.544 81.148 86.564C79.736 92.584 74.56 98.604 68.532 99.472C62.508 100.336 59.952 99.328 52.64 99.232V28.792S63.732 27.952 69.712 28.004zM85.596 30.604S98.14 34.216 97.996 47.94C97.86 61.664 85.596 64.748 85.596 64.748S91.544 59.332 91.828 47.808S85.6 30.6 85.6 30.6zM73.196 71.94C68.8 66.096 57.852 67.636 57.852 67.636S57.8 92.3 58.884 93.36C59.964 94.42 65.568 96.3 70.884 92.54C76.204 88.78 77.588 77.784 73.192 71.94zM74.008 61.44C78.12 59.612 83.328 53.384 80.788 43.336C78.248 33.284 70.528 32.996 66.48 33.156C62.432 33.316 58.536 33.252 58.1 44.908S57.848 62.788 57.848 62.788S69.896 63.272 74.008 61.44z" />
    <glyph glyph-name="block"
      unicode="&#xEA16;"
      horiz-adv-x="128" d=" M64 0C28.652 0 0 28.652 0 64S28.652 128 64 128S128 99.348 128 64S99.348 0 64 0zM44.088 100L64.364 64L43.724 28H85L106 64L85 100H44.088zM65.808 87.336H77.76L91.156 64L77.756 40.664H65.812L79.208 64L65.808 87.336zM48.448 83.896L41.16 96.84L22 64L40.992 31.44L48.352 44.28L36.84 64L48.448 83.896z" />
    <glyph glyph-name="bnb"
      unicode="&#xEA17;"
      horiz-adv-x="128" d=" M64 0C28.652 0 0 28.652 0 64S28.652 128 64 128S128 99.348 128 64S99.348 0 64 0zM48.464 70.384L64 85.92L79.544 70.376L88.584 79.416L64 104L39.424 79.424L48.464 70.384zM24 64L33.04 54.96L42.08 64L33.04 73.04L24 64zM48.464 57.616L39.412 48.588L39.424 48.576L64 24L88.584 48.584V48.588L79.544 57.628L64 42.08L48.464 57.616zM85.92 64L94.96 54.96L104 64L94.96 73.04L85.92 64zM73.168 64.008H73.172L64 73.176L57.22 66.4L56.44 65.62L54.836 64.012L54.82 64L54.836 63.988L63.996 54.824L73.172 63.996L73.176 64L73.168 64.004z" />
    <glyph glyph-name="bnt"
      unicode="&#xEA18;"
      horiz-adv-x="128" d=" M64 0C28.652 0 0 28.652 0 64S28.652 128 64 128S128 99.348 128 64S99.348 0 64 0zM63.68 104.48L45.608 93.892L63.68 83.3L82.092 93.892L63.68 104.48zM66.652 47.944V26.764L91.2 40.768V61.952L66.652 47.944zM85.064 87.232L66.648 76.64V55.456L85.064 66.048V87.232zM40.736 66.048L59.152 55.456V76.64L40.736 87.232V66.048zM40.736 37.352L59.152 26.764V47.944L40.736 58.532V37.356z" />
    <glyph glyph-name="bq"
      unicode="&#xEA19;"
      horiz-adv-x="128" d=" M64 0C28.652 0 0 28.652 0 64S28.652 128 64 128S128 99.348 128 64S99.348 0 64 0zM39.864 43.624C49.412 35.212 62.512 36.312 70.396 43.432C78.48 50.732 80.288 62.456 74.708 71.636C71.016 77.712 65.588 81.268 58.532 82.344C51.408 83.432 45.292 81.172 39.8 76.584C39.8 80.552 39.788 84.344 39.808 88.128A7.564 7.564 0 0 1 37.64 93.58A7.700000000000001 7.700000000000001 0 0 1 32 96V38.532H39.864V43.624zM39.848 60.184C39.848 68.624 46.752 75.456 55.28 75.464A15.336 15.336 0 0 0 70.712 59.992C70.708 51.656 63.812 44.844 55.324 44.792A15.395999999999999 15.395999999999999 0 0 0 39.844 60.184zM65.3 38.636C73.884 35.996 81.396 37.7 88.188 43.392V31.912C88.188 29.788 88.908 27.932 90.396 26.408C91.912 24.856 93.776 24.06 96 24V81.476H88.12V76.372C85 78.964 81.664 80.86 77.8 81.736C73.908 82.616 70.072 82.364 66.136 81.284L66.768 80.9C68.836 79.712 70.776 78.332 72.376 76.564C73.24 75.612 74.164 75.128 75.456 74.884C84.136 73.228 89.388 65.604 87.9 56.964C86.768 50.392 80.752 45.012 74.072 44.628A2.112 2.112 0 0 1 72.552 43.908A22.852 22.852 0 0 0 65.948 39.024C65.776 38.936 65.612 38.824 65.3 38.636z" />
    <glyph glyph-name="bqx"
      unicode="&#xEA1A;"
      horiz-adv-x="128" d=" M64 0C28.652 0 0 28.652 0 64S28.652 128 64 128S128 99.348 128 64S99.348 0 64 0zM107.816 64.568L108 64.616C107.916 65.776 107.88 66.948 107.736 68.096C107.428 70.532 107.208 72.988 106.692 75.376C105.748 79.744 104.024 83.82 101.744 87.656A41.21600000000001 41.21600000000001 0 0 1 95.208 95.984C93.176 97.988 90.952 99.752 88.568 101.32A40.516 40.516 0 0 1 79.144 105.852C76.344 106.796 73.464 107.38 70.516 107.716A44.69599999999999 44.69599999999999 0 0 1 57.144 107.212C51.996 106.248 47.18 104.364 42.672 101.66A46.3 46.3 0 0 1 29.632 90.056A46.524 46.524 0 0 1 22.344 76.392A44.232 44.232 0 0 1 20.028 63.684C19.94 60.844 20.052 58.004 20.448 55.18C20.992 51.248 22.088 47.48 23.696 43.872A41.268 41.268 0 0 1 31.392 32.272C33.272 30.28 35.272 28.444 37.48 26.84A42.164 42.164 0 0 1 49.74 20.724C50.66 20.436 51.604 20.24 52.536 20C44.068 24.648 37.7 31.18 33.884 40.172C30.068 49.168 29.532 58.42 32.388 67.696C37.188 83.296 50.688 95.232 68.984 95.832C77.436 96.108 85.264 93.592 92.164 88.56C100.352 82.592 105.596 74.576 107.816 64.568zM62.356 47.648H62.384C62.384 42.168 62.392 36.688 62.368 31.212C62.364 30.576 62.636 30.428 63.152 30.396C65.2 30.276 67.248 30.084 69.3 30.036C73.128 29.956 76.952 30.06 80.644 31.276C84.5 32.556 87.04 35.064 87.664 39.248C88.32 43.656 85.8 47.468 81.524 48.768C81.352 48.816 81.22 49.008 81.068 49.132C81.208 49.28 81.32 49.492 81.484 49.556C82.772 50.04 83.828 50.828 84.76 51.848C87.484 54.824 87.132 59.92 83.652 62.56C81.612 64.104 79.264 64.852 76.756 65.112C73.292 65.472 69.824 65.312 66.356 65.088A39.52 39.52 0 0 1 62.848 64.652C62.664 64.624 62.376 64.328 62.376 64.152C62.352 58.652 62.356 53.152 62.356 47.648zM69.848 55.384C69.848 56.484 69.872 57.584 69.84 58.68C69.824 59.324 70.012 59.664 70.716 59.652C72.008 59.632 73.312 59.744 74.596 59.644C75.396 59.584 76.236 59.36 76.956 58.996C79.552 57.696 79.708 54.132 77.3 52.46C76.108 51.628 74.76 51.336 73.352 51.28C72.412 51.248 71.468 51.316 70.524 51.284C69.972 51.264 69.828 51.524 69.832 52.016C69.844 53.136 69.836 54.26 69.836 55.384H69.848zM69.836 40.72C69.836 42.152 69.852 43.588 69.828 45.02C69.82 45.596 70.028 45.86 70.604 45.86C72.492 45.86 74.376 45.86 76.216 45.32C80.216 44.16 80.524 40.4 79.076 38.088C78.212 36.704 76.808 36.048 75.276 35.864C73.696 35.672 72.084 35.72 70.484 35.684C70.024 35.672 69.828 35.932 69.836 36.416C69.856 37.852 69.844 39.284 69.844 40.72H69.836zM97.536 65.472C97.536 65.672 97.552 65.744 97.536 65.808A28.968 28.968 0 0 1 94.104 73.312A27.8 27.8 0 0 1 82.796 83.324A26.684 26.684 0 0 1 73.444 85.988C69.496 86.34 65.584 86.052 61.748 84.876A30.507999999999996 30.507999999999996 0 0 1 49.58 77.824A30.824 30.824 0 0 1 42.668 68.216C40.428 63.352 39.612 58.256 39.972 52.936C40.224 49.264 41.26 45.808 42.84 42.508C43.12 41.912 43.472 41.348 43.792 40.772C43.792 41.76 43.672 42.672 43.564 43.588A28.468 28.468 0 0 0 44.656 55.212A30.748 30.748 0 0 0 50.956 66.712C53.408 69.504 56.196 71.872 59.44 73.66A30.512 30.512 0 0 0 70.6 77.32A29.612 29.612 0 0 0 80.028 76.94A26.428 26.428 0 0 0 90.72 72.276C92.284 71.116 93.712 69.748 95.112 68.38C95.984 67.528 96.688 66.5 97.536 65.472z" />
    <glyph glyph-name="btc"
      unicode="&#xEA1B;"
      horiz-adv-x="128" d=" M64 0C28.652 0 0 28.652 0 64S28.652 128 64 128S128 99.348 128 64S99.348 0 64 0zM92.756 71.92C94.012 80.304 87.624 84.812 78.896 87.82L81.728 99.18L74.816 100.9L72.056 89.84C70.24 90.296 68.376 90.72 66.516 91.144L69.296 102.276L62.384 104L59.552 92.644C58.048 92.988 56.568 93.324 55.136 93.684L55.144 93.72L45.608 96.1L43.768 88.716S48.9 87.54 48.792 87.468C51.592 86.768 52.096 84.916 52.012 83.444L48.788 70.504C48.98 70.456 49.228 70.384 49.508 70.276L48.776 70.456L44.256 52.328C43.912 51.48 43.044 50.204 41.084 50.688C41.156 50.588 36.06 51.94 36.06 51.94L32.628 44.028L41.628 41.784C43.3 41.364 44.94 40.924 46.552 40.512L43.692 29.024L50.6 27.304L53.432 38.664C55.32 38.156 57.152 37.684 58.944 37.236L56.12 25.924L63.032 24.204L65.892 35.668C77.684 33.436 86.548 34.336 90.28 45C93.288 53.584 90.132 58.54 83.928 61.768C88.448 62.808 91.848 65.78 92.756 71.92zM76.956 49.768C74.824 41.18 60.364 45.824 55.676 46.988L59.476 62.208C64.164 61.036 79.192 58.72 76.956 49.768zM79.096 72.044C77.148 64.232 65.116 68.204 61.216 69.176L64.656 82.976C68.556 82.004 81.128 80.192 79.096 72.044z" />
    <glyph glyph-name="btcd"
      unicode="&#xEA1C;"
      horiz-adv-x="128" d=" M64 0C28.652 0 0 28.652 0 64S28.652 128 64 128S128 99.348 128 64S99.348 0 64 0zM68.312 50.576C71.944 44.888 73.692 32.976 73.384 28.708C121.24 45.16 106.248 97.732 74.344 100C74.344 88.22 71.632 78.712 68.312 78.712C81.38 77.912 88.632 56.844 68.312 50.576zM24 56.8C47.816 56.8 67.092 76.092 67.092 99.96H44.848C44.888 88.268 35.58 78.712 24.044 78.668H24V56.8zM53.148 60.76C47.12 55.332 43.752 52.532 27.236 49.868C36.98 49.868 44.848 40.088 44.848 28H67.088C67.088 31.644 66.348 49.912 53.148 60.76z" />
    <glyph glyph-name="btcz"
      unicode="&#xEA1D;"
      horiz-adv-x="128" d=" M64 0C28.652 0 0 28.652 0 64S28.652 128 64 128S128 99.348 128 64S99.348 0 64 0zM64 20C68.54 20 73.052 20.696 77.376 22.076A3.552 3.552 0 1 1 75.224 28.844A36.896 36.896 0 0 0 64 27.104C43.656 27.104 27.104 43.656 27.104 64S43.656 100.896 64 100.896S100.896 84.344 100.896 64C100.896 60.64 100.44 57.288 99.536 54.048A3.552 3.552 0 1 1 106.38 52.136C107.46 56 108 59.992 108 64C108 88.252 88.252 108 64 108S20 88.264 20 64S39.736 20 64 20zM77.5 64.104A9.408 9.408 0 0 1 71.972 66.232A8.24 8.24 0 0 1 75.04 70.472C75.56 72.12 75.632 73.872 75.256 75.552A10.148 10.148 0 0 1 71.68 81.288A8.552 8.552 0 0 1 68.672 82.796A7.18 7.18 0 0 1 65.152 82.856L62.908 82.368A1.184 1.184 0 0 0 61.496 83.264L60.904 85.936A1.184 1.184 0 0 1 59.492 86.832L56.784 86.232A1.184 1.184 0 0 1 55.876 84.832L56.476 82.14A1.184 1.184 0 0 0 55.576 80.728L48.244 79.104A2.888 2.888 0 0 1 46.044 75.664L52.644 45.824A2.888 2.888 0 0 1 56.084 43.624L63.416 45.252A1.184 1.184 0 0 0 64.828 44.352L65.42 41.684A1.184 1.184 0 0 1 66.832 40.784L69.54 41.384A1.184 1.184 0 0 1 70.44 42.796L69.844 45.484A1.184 1.184 0 0 0 70.724 46.892L71.736 47.136C73.368 47.496 73.692 47.724 75.06 48.432A12.56 12.56 0 0 1 78.532 50.98C79.452 51.944 80.124 53.108 80.508 54.38C80.892 55.752 80.916 57.204 80.572 58.588C80.044 60.992 79.02 62.832 77.5 64.104zM55.78 70.492A2.888 2.888 0 0 0 57.98 73.932L63.5 75.156A3.068 3.068 0 0 0 65.944 74.7C66.704 74.204 67.208 73.372 67.464 72.204C67.744 70.94 67.604 69.928 67.036 69.176A3.6640000000000006 3.6640000000000006 0 0 0 64.836 67.744L59.616 66.588A2.888 2.888 0 0 0 56.172 68.788L55.78 70.492zM71.416 55.424A3.6640000000000006 3.6640000000000006 0 0 0 69 53.788L62.724 52.4A2.888 2.888 0 0 0 59.284 54.6L58.816 56.708A2.888 2.888 0 0 0 61.016 60.148L67.64 61.616A3.056 3.056 0 0 0 70.292 60.992C71.108 60.344 71.664 59.428 71.86 58.404A3.8039999999999994 3.8039999999999994 0 0 0 71.424 55.424H71.416zM84.608 33.892A1.108 1.108 0 0 1 84.348 33.172V32.052C84.348 31.44 84.844 30.944 85.456 30.944H95.264A1.108 1.108 0 0 1 96.376 32.052V32.912A1.108 1.108 0 0 1 95.264 34.02H91.06A1.108 1.108 0 0 0 90.192 35.82L96.056 43.188C96.216 43.384 96.3 43.628 96.3 43.876V45.012A1.108 1.108 0 0 1 95.192 46.12H85.76A1.108 1.108 0 0 1 84.648 45.012V44.148C84.648 43.536 85.144 43.04 85.76 43.04H89.888A1.108 1.108 0 0 0 90.74 41.22L84.608 33.892z" />
    <glyph glyph-name="btg"
      unicode="&#xEA1E;"
      horiz-adv-x="128" d=" M64 0C28.652 0 0 28.652 0 64S28.652 128 64 128S128 99.348 128 64S99.348 0 64 0zM64 20C88.3 20 108 39.7 108 64S88.3 108 64 108S20 88.3 20 64S39.7 20 64 20zM60.048 101.04C61.792 101.16 63.548 101.24 65.296 101.3C65.316 97.712 65.308 94.12 65.296 90.532L60.056 90.54C60.056 94.04 60.056 97.54 60.048 101.04zM72.656 90.372H72.66C72.652 93.672 72.652 96.972 72.676 100.268C82.396 97.832 91.052 91.48 96.144 82.836C101.908 73.248 102.876 61.004 98.792 50.596C94.488 39.316 84.372 30.596 72.652 27.736C72.66 31.016 72.668 34.288 72.644 37.564C78.212 38.092 84.312 38.58 88.816 42.284C93.364 46.268 94.416 53.048 93.096 58.704C92.08 63.02 88.012 65.756 83.904 66.712C90.768 70.352 91.488 80.912 85.884 85.94C82.212 89.048 77.264 89.752 72.656 90.372zM37.672 90.512C42.144 94.44 47.208 97.748 52.896 99.592C52.924 96.504 52.916 93.416 52.916 90.328C47.832 90.32 42.748 90.268 37.676 90.512zM31.744 82.552C33.224 85.324 35.552 87.52 37.016 90.296C37.28 89.956 37.376 89.544 37.3 89.064C37.336 86.956 37.368 84.852 37.672 82.768C40.26 82.752 42.888 82.952 45.452 82.444C47.004 82.148 47.94 80.536 47.848 79.044C47.932 69.788 47.824 60.528 47.9 51.272C47.82 49.652 48.224 47.696 46.816 46.512C44.404 45.7 41.8 46.136 39.304 46.084C38.336 43.416 37.668 40.636 37.612 37.804C42.7 37.524 47.812 37.712 52.912 37.66C52.912 34.58 52.92 31.492 52.9 28.412C42.912 31.624 34.38 39.08 30.08 48.664C25.1 59.356 25.772 72.388 31.744 82.556zM60.264 82.148C64.696 82.02 69.568 82.692 73.56 80.324C76.98 78.38 77.192 72.888 73.88 70.724C69.888 68.076 64.828 68.584 60.268 68.5V82.148zM60.264 61.156H60.268C65.716 61.008 71.68 61.94 76.588 59.008C80.2 56.996 80.62 51.248 77.116 48.92C72.216 45.524 65.896 46.472 60.268 46.016V61.16zM60.06 37.456H65.52C65.52 33.872 65.528 30.288 65.512 26.704A149.496 149.496 0 0 0 60.04 26.948C60.052 30.452 60.06 33.956 60.06 37.456z" />
    <glyph glyph-name="btm"
      unicode="&#xEA1F;"
      horiz-adv-x="128" d=" M43.308 66.496L50.288 81.296L28.92 59.92L24 55.008L39.576 39.576L36.328 51.704L43.308 66.5L36.328 51.7L58.096 73.472L50.288 81.292L43.308 66.496zM64 0C28.652 0 0 28.652 0 64S28.652 128 64 128S128 99.348 128 64S99.348 0 64 0zM51.704 91.672L73.472 69.904L55.008 104L39.568 88.424L51.704 91.672zM76.296 36.328L54.528 58.096L72.992 24L88.424 39.576L76.296 36.328zM80.16 90.64L88.424 88.432L91.68 76.304L69.904 54.528L77.712 46.716L104 73L97.448 97.452L72.992 104L69.904 100.9L80.16 90.64zM55.008 24L58.096 27.1L47.84 37.368L39.576 39.576L24 55.008L30.56 30.56L55.008 24zM104 55.008L100.9 58.096L90.64 47.84L88.424 39.576L72.992 24L97.448 30.552L104 55.008zM24 72.992L27.1 69.904L37.36 80.168L39.568 88.424L55.008 104L30.56 97.448L24 72.992zM81.28 77.724L59.92 99.076L55.008 104L73.472 69.904L81.284 77.724zM46.72 50.284L72.988 24L54.524 58.096L46.712 50.288z" />
    <glyph glyph-name="bts"
      unicode="&#xEA20;"
      horiz-adv-x="128" d=" M64 0C28.652 0 0 28.652 0 64S28.652 128 64 128S128 99.348 128 64S99.348 0 64 0zM44 75.192V54.392H59.464C59.688 55.64 60.168 56.804 60.84 57.816L44 75.192zM44 79.864L63.104 60.152A8.52 8.52 0 0 0 66.424 61.572V87.444L44 108V79.864zM86.112 36.416A25.103999999999996 25.103999999999996 0 0 1 92 51.08H76.588A9.096 9.096 0 0 0 75.212 47.656L86.112 36.412zM83.844 34.076L72.948 45.32A8.52 8.52 0 0 0 69.628 43.9V28A23.548 23.548 0 0 1 83.844 34.08zM44.052 51.084C44.412 45.484 46.572 40.388 49.944 36.416L60.84 47.656A9.096 9.096 0 0 0 59.464 51.084H44.052zM92 54.388A25.103999999999996 25.103999999999996 0 0 1 86.112 69.06L75.212 57.816C75.884 56.804 76.364 55.64 76.588 54.388H92zM52.208 34.076A23.548 23.548 0 0 1 66.424 28V43.9A8.52 8.52 0 0 0 63.104 45.32L52.208 34.08zM83.848 71.396A23.548 23.548 0 0 1 69.628 77.476V61.572C70.84 61.34 71.968 60.848 72.948 60.152L83.844 71.396z" />
    <glyph glyph-name="btx"
      unicode="&#xEA21;"
      horiz-adv-x="128" d=" M64 0C28.652 0 0 28.652 0 64S28.652 128 64 128S128 99.348 128 64S99.348 0 64 0zM90.528 71.92C91.784 80.304 85.4 84.812 76.668 87.82L79.5 99.18L72.588 100.9L69.828 89.84C68.012 90.296 66.148 90.72 64.292 91.144L67.068 102.276L60.156 104L57.324 92.644C55.82 92.988 54.34 93.324 52.908 93.684L52.916 93.72L43.38 96.1L41.54 88.716S46.672 87.54 46.564 87.468C49.364 86.768 49.868 84.916 49.784 83.444L46.56 70.504C46.752 70.456 47 70.384 47.28 70.276L46.548 70.456L42.028 52.328C41.684 51.48 40.816 50.204 38.856 50.688C38.928 50.588 33.832 51.94 33.832 51.94L30.4 44.028L39.4 41.784C41.072 41.364 42.712 40.924 44.328 40.512L41.464 29.024L48.372 27.304L51.204 38.664C53.092 38.156 54.924 37.684 56.716 37.236L53.892 25.924L60.804 24.204L63.668 35.668C75.456 33.436 84.32 34.336 88.052 45C91.06 53.584 87.904 58.54 81.7 61.768C86.22 62.808 89.62 65.78 90.528 71.92zM74.728 49.768C72.596 41.18 58.14 45.824 53.452 46.988L57.252 62.208C61.932 61.036 76.964 58.72 74.732 49.768zM76.868 72.044C74.92 64.232 62.888 68.204 58.988 69.176L62.428 82.976C66.332 82.004 78.9 80.192 76.868 72.044zM96.988 41.528L97.604 44.196A4.768 4.768 0 0 1 95.532 44.08C94.916 43.896 94.372 43.6 93.9 43.192A5.403999999999999 5.403999999999999 0 0 1 92.7 41.692A7.4799999999999995 7.4799999999999995 0 0 1 91.972 39.756A6.44 6.44 0 0 1 91.872 37.036C92.036 36.216 92.352 35.488 92.824 34.856C93.292 34.22 93.896 33.688 94.636 33.256C95.372 32.82 96.196 32.5 97.096 32.292C97.984 32.088 98.84 32.024 99.664 32.104A5.468 5.468 0 0 1 103.636 34.316C104.124 34.968 104.476 35.768 104.696 36.72C105.056 38.28 104.928 39.628 104.312 40.76C103.696 41.896 102.632 42.772 101.112 43.384L100.496 40.72C101.34 40.392 101.944 39.92 102.312 39.304C102.68 38.684 102.772 37.984 102.592 37.204A2.9040000000000004 2.9040000000000004 0 0 0 100.712 35.044A4.2 4.2 0 0 0 99.248 34.788C98.724 34.788 98.208 34.844 97.712 34.956A6.5120000000000005 6.5120000000000005 0 0 0 95.552 35.8A3.7680000000000002 3.7680000000000002 0 0 0 94.412 36.928A2.68 2.68 0 0 0 94.004 38.152C93.976 38.572 94.004 38.952 94.084 39.292A3.016 3.016 0 0 0 95.084 41.02A2.568 2.568 0 0 0 96.988 41.528zM107.756 49.98A6.76 6.76 0 0 1 107.876 52.676A5.655999999999999 5.655999999999999 0 0 1 106.996 54.896A5.8 5.8 0 0 1 105.26 56.552A7.944 7.944 0 0 1 102.78 57.556A7.868 7.868 0 0 1 100.14 57.736A5.8 5.8 0 0 1 97.852 57.008C97.172 56.616 96.584 56.076 96.088 55.396A6.76 6.76 0 0 1 95.012 52.92A6.76 6.76 0 0 1 94.892 50.228C95.04 49.396 95.332 48.656 95.772 48.004C96.212 47.352 96.792 46.804 97.508 46.348C98.228 45.896 99.044 45.564 99.964 45.348C100.9 45.132 101.788 45.072 102.632 45.164A5.8 5.8 0 0 1 104.916 45.892C105.596 46.288 106.188 46.824 106.68 47.504A6.76 6.76 0 0 1 107.76 49.98zM97.26 61.172L109.352 58.38L109.968 61.044L104.216 62.372A5.764 5.764 0 0 0 102.496 63.04A4 4 0 0 0 101.36 64.04A3.0039999999999996 3.0039999999999996 0 0 0 100.832 66.6C100.872 66.792 100.932 66.98 101 67.168L101.212 67.724L98.64 68.316L98.508 67.964C98.468 67.852 98.408 67.64 98.336 67.324A3.2679999999999993 3.2679999999999993 0 0 1 98.296 66.08A4.56 4.56 0 0 1 99.336 63.856A2.768 2.768 0 0 1 100.188 63.18L100.176 63.132L97.84 63.672L97.26 61.172zM106.38 69.932L108.428 78.812A7.1 7.1 0 0 1 105.756 79.248A6.559999999999999 6.559999999999999 0 0 1 103.248 78.68C102.48 78.332 101.808 77.828 101.236 77.16A5.56 5.56 0 0 1 100.048 74.74A5.716 5.716 0 0 1 100.004 72.188C100.18 71.392 100.504 70.672 100.968 70.032C101.436 69.392 102.024 68.844 102.736 68.392A8.384 8.384 0 0 1 107.748 67.212A5.36 5.36 0 0 1 111.764 69.452C112.244 70.112 112.592 70.916 112.812 71.868C112.96 72.524 113.016 73.172 112.976 73.812A5.492 5.492 0 0 1 112.556 75.62A5.176 5.176 0 0 1 109.956 78.288L109.376 75.768C109.992 75.376 110.412 74.904 110.636 74.352A3.288 3.288 0 0 0 110.704 72.352A3.4040000000000004 3.4040000000000004 0 0 0 110.08 70.972A2.948 2.948 0 0 0 109.064 70.148A3.432 3.432 0 0 0 107.78 69.816A4.764 4.764 0 0 0 106.38 69.928zM105.652 50.464A3.14 3.14 0 0 0 103.692 48.16A4.4 4.4 0 0 0 102.18 47.856A6.28 6.28 0 0 0 99.08 48.572A4.244 4.244 0 0 0 97.856 49.508A3.14 3.14 0 0 0 97.116 52.436A3.14 3.14 0 0 0 99.068 54.744C99.528 54.932 100.032 55.036 100.576 55.048A6.328 6.328 0 0 0 103.676 54.332A4.4 4.4 0 0 0 104.9 53.396A3.14 3.14 0 0 0 105.652 50.464zM106.06 76.556L104.62 70.332A3.6400000000000006 3.6400000000000006 0 0 0 102.556 71.784A2.992 2.992 0 0 0 102.104 72.924A3.288 3.288 0 0 0 102.704 75.42A3.092 3.092 0 0 0 104.784 76.568C105.204 76.624 105.632 76.62 106.06 76.556z" />
    <glyph glyph-name="burst"
      unicode="&#xEA22;"
      horiz-adv-x="128" d=" M64 0C28.652 0 0 28.652 0 64S28.652 128 64 128S128 99.348 128 64S99.348 0 64 0zM46.824 50.816L48.924 59.976H55.04L49.988 32H69.488C81.556 32 88.992 37.388 90.816 47.492L91.728 52.552C92.908 59.096 91.328 63.632 86.64 66.036C91.376 68.352 94.132 72.364 95.224 78.396L95.624 80.62C97.492 90.98 92.436 96 79.96 96H61.536L56.968 70.684L38.656 70.696L36.616 60.924H16zM67.088 61.804H73.048C79.1 61.804 81.236 59.348 80.124 53.176L79.144 47.76C78.272 42.932 75.704 40.884 71.092 40.884H63.312zM71.66 87.12H78.04C82.76 87.12 84.628 84.64 83.728 79.648L83.1 76.18C82.18 71.068 79.164 68.86 74.012 68.86H68.36z" />
    <glyph glyph-name="cdn"
      unicode="&#xEA23;"
      horiz-adv-x="128" d=" M64 0C28.652 0 0 28.652 0 64S28.652 128 64 128S128 99.348 128 64S99.348 0 64 0zM64 104L57.36 91.936C56.608 90.624 55.26 90.744 53.908 91.476L49.108 93.904L52.684 75.372C53.44 71.984 51.024 71.984 49.832 73.452L41.44 82.6L40.08 77.952C39.92 77.34 39.232 76.7 38.196 76.852L27.596 79.028L30.376 69.156C30.976 66.96 31.44 66.052 29.776 65.476L25.996 63.74L44.248 49.292C44.972 48.744 45.336 47.76 45.08 46.872L43.48 41.76C49.768 42.468 55.4 43.528 61.688 44.184C62.244 44.24 63.172 43.348 63.168 42.72L62.34 24H65.396L64.916 42.68C64.912 43.308 65.756 44.24 66.308 44.184C72.596 43.528 78.228 42.464 84.512 41.76L82.916 46.872A2.296 2.296 0 0 0 83.748 49.292L102 63.74L98.22 65.472C96.556 66.052 97.02 66.96 97.62 69.156L100.404 79.028L89.8 76.852C88.764 76.7 88.072 77.34 87.92 77.952L86.556 82.6L78.168 73.448C76.976 71.984 74.56 71.984 75.316 75.368L78.896 93.904L74.092 91.476C72.74 90.744 71.392 90.624 70.64 91.936z" />
    <glyph glyph-name="clam"
      unicode="&#xEA24;"
      horiz-adv-x="128" d=" M64 0C28.652 0 0 28.652 0 64S28.652 128 64 128S128 99.348 128 64S99.348 0 64 0zM71.24 96.52C71.24 92.988 71.128 80.5 69.74 67.908C68.432 56.04 66.356 43.016 65.88 40.092C66.48 40.036 67.048 39.944 67.584 39.824C68.728 42.124 74.356 53.66 76.936 62.328C79.888 72.248 81.592 85.48 81.64 90.832L81.648 91.796C80.668 93.288 78.532 96.068 75.768 96.812C73.352 97.46 71.948 97.172 71.236 96.876zM82.836 90.824C82.784 85.404 81.064 72.02 78.08 61.996C75.548 53.48 70.12 42.264 68.76 39.516C69.344 39.332 69.912 39.112 70.46 38.848C71.92 40.728 78.612 49.5 82.804 57.428C87.744 66.788 92.336 79.196 92.956 81.604L93.212 82.592C92.664 84.264 91.352 87.376 88.808 89.012C86.18 90.704 83.88 90.892 82.836 90.868zM83.864 56.888C79.732 49.068 73.204 40.456 71.52 38.276C72.216 37.86 72.868 37.38 73.472 36.836C75.264 38.576 82.74 45.904 87.716 52.08C93.46 59.212 99.168 69.22 100.104 71.392L100.588 72.52C100.456 73.96 100.048 76.24 98.812 77.928C97.364 79.904 95.14 80.9 94.104 81.276C93.32 78.296 88.568 65.796 83.864 56.888zM44.02 89.896C44.468 86.388 46.596 75.268 50.308 63.288C53.636 52.548 58.588 41.828 59.7 39.464C60.276 39.652 60.868 39.8 61.464 39.904C61.024 42.464 58.76 55.92 57.356 68.572C55.82 82.4 55.196 94.116 55.112 96.496L55.104 96.732C54.06 97.036 51.724 97.412 48.728 96.04C45.968 94.78 44.528 92.412 43.88 90.992L44.02 89.896zM56.304 96.536C56.388 94.168 57.012 82.492 58.544 68.696C59.948 56.024 62.224 42.536 62.648 40.076C63.22 40.132 63.792 40.164 64.368 40.164L64.68 40.156C65.112 42.812 67.228 56.024 68.552 68.036C69.936 80.568 70.044 93.004 70.044 96.516V97.084C68.92 98.068 66.312 100 63.12 100C59.932 100 57.38 98.068 56.284 97.08L56.3 96.536zM64.368 38.988C57.856 38.988 54.888 35.16 54.008 33.74C59.512 29.76 63.012 28 64.42 28C65.828 28 69.816 30.132 74.716 33.568C73.816 35.064 70.836 38.988 64.368 38.988zM101.172 70.86C100.144 68.528 94.412 58.492 88.652 51.348C83.644 45.132 76.14 37.772 74.316 36.008C74.82 35.464 75.276 34.876 75.676 34.252A116.68 116.68 0 0 1 86.84 43.4C96.248 52.156 103.74 60.812 103.988 65.176A6.156 6.156 0 0 1 101.172 70.86zM27.28 71.708C29.428 66.344 33.52 59.988 39.448 52.82A135.244 135.244 0 0 1 55.088 36.836C55.488 37.196 55.916 37.532 56.364 37.836C54.692 39.788 48.724 47.068 43.232 57.6C37.08 69.4 34.744 77.56 33.744 81.048L33.596 81.568L33.588 81.592C32.212 81.228 28.74 80.092 27.376 77.612A7.84 7.84 0 0 1 26.452 73.896C26.712 73.16 26.988 72.432 27.28 71.708zM54.24 35.996A136.816 136.816 0 0 0 38.52 52.076C32.728 59.084 28.664 65.336 26.412 70.684C25.572 69.956 23.816 68.004 24.012 64.552C24.276 60.028 30.872 52.864 42.916 42.568C46.792 39.252 50.168 36.568 53.044 34.448A11.640000000000002 11.640000000000002 0 0 0 54.244 35.996zM34.748 81.892L34.896 81.372C35.888 77.916 38.2 69.832 44.296 58.136C49.872 47.444 55.928 40.16 57.388 38.472C57.776 38.684 58.172 38.876 58.58 39.048C57.38 41.6 52.48 52.264 49.168 62.944C45.432 74.996 43.288 86.208 42.84 89.748L42.82 89.884A8.676 8.676 0 0 1 37.308 88.244C35.448 86.888 34.688 84.696 34.38 83.232C34.476 82.864 34.592 82.424 34.748 81.892z" />
    <glyph glyph-name="cloak"
      unicode="&#xEA25;"
      horiz-adv-x="128" d=" M64 0C28.652 0 0 28.652 0 64S28.652 128 64 128S128 99.348 128 64S99.348 0 64 0zM64.012 108C39.76 108 20.012 88.284 20 64.056C19.988 39.788 39.7 20.024 63.944 20H63.984C88.248 20 107.992 39.732 108 63.988C108.008 88.216 88.276 107.96 64.012 108zM64 102.328H64.004C74.228 102.328 83.844 98.336 91.088 91.088A38.016000000000005 38.016000000000005 0 0 0 102.308 64.008C102.292 42.888 85.084 25.704 63.948 25.704C42.856 25.72 25.7 42.904 25.704 64.008C25.712 85.136 42.892 102.328 64 102.328zM82.912 67.932A19.192 19.192 0 0 1 64.108 83.356C62.688 83.356 61.248 83.196 59.828 82.884C50.3 80.796 43.96 72.18 44.748 62.404C45.12 57.76 46.908 53.856 50.2 50.464L50.832 49.812L51.672 50.168L53.224 50.808L55.18 51.592L53.632 53.028A14.539999999999997 14.539999999999997 0 0 0 49.176 61.188C48.284 65.932 49.504 70.364 52.696 74.004A15.055999999999997 15.055999999999997 0 0 0 64.016 79.124C67.968 79.124 71.688 77.604 74.496 74.856C77.692 71.736 79.228 67.944 79.072 63.6C78.916 59.256 77.28 55.652 74.204 52.892L72.628 51.476L74.588 50.66C75.08 50.456 75.564 50.236 76.04 50.004L76.904 49.58L77.584 50.264C82.524 55.28 84.268 61.056 82.912 67.932zM39.892 42.772L40.868 41.68L44.532 45.624L43.748 46.532A26.368 26.368 0 0 0 38.028 57.612A26.472 26.472 0 0 0 38.508 72.116A26.351999999999997 26.351999999999997 0 0 0 46.544 84.264A26.796 26.796 0 0 0 64.028 90.764C71.072 90.764 77.704 88.052 82.696 83.128C87.616 78.28 90.304 72.392 90.688 65.632C91.1 58.232 88.82 51.672 83.908 46.14L83.116 45.248L86.708 41.24L87.704 42.312C95.556 50.732 98.184 63.34 94.404 74.432A32.112 32.112 0 0 1 63.256 96.136A32.128 32.128 0 0 1 33.484 74.068C29.204 61.036 33.988 49.356 39.892 42.772z" />
    <glyph glyph-name="cnd"
      unicode="&#xEA26;"
      horiz-adv-x="128" d=" M64 0C28.652 0 0 28.652 0 64S28.652 128 64 128S128 99.348 128 64S99.348 0 64 0zM77.892 82.08L88.56 84.528L92.692 91.328L88.612 98.024L83.388 101.632L72.656 104L66.036 100.268L55.444 102.156L40.9 92.076L39.768 80.312L33.596 77.736L34.308 66.82L30 63.388L34.304 51.1L34.952 49.812L39.504 37.16L48.864 33.848L55.796 26.792L63.772 24L67.38 25.04L73.104 25.7L81.496 28.104L94 35.164L90.728 48.092L84.432 50.572L81.296 46.984L72.476 44.816L59.648 46.848L55.508 51.636L56.948 56.316L50.884 65.916L55.984 72.14L56.528 82.72L63.832 86.912L68.84 88.912L75.64 87.684z" />
    <glyph glyph-name="cnx"
      unicode="&#xEA27;"
      horiz-adv-x="128" d=" M58.056 25.776A33.928 33.928 0 0 1 68.256 20L67.688 25.496A38.69599999999999 38.69599999999999 0 0 1 102.288 58.492A33.924 33.924 0 0 1 108 68.612L102.468 68.04A38.69599999999999 38.69599999999999 0 0 1 69.508 102.288A33.924 33.924 0 0 1 59.388 108L59.96 102.468A38.69599999999999 38.69599999999999 0 0 1 25.712 69.508A33.924 33.924 0 0 1 20 59.388L25.532 59.96A38.69599999999999 38.69599999999999 0 0 1 58.056 25.776zM60.336 42.304A22.012 22.012 0 0 0 42.12 61.684L47.32 62.224A27.907999999999998 27.907999999999998 0 0 0 42.256 67.372A22.012 22.012 0 0 0 61.684 85.88L62.224 80.68A27.907999999999998 27.907999999999998 0 0 0 67.372 85.744A22.012 22.012 0 0 0 85.88 66.316L80.68 65.776C82.664 64.204 84.352 62.488 85.744 60.628A22.012 22.012 0 0 0 65.964 42.088L65.42 47.324C63.864 45.36 62.172 43.684 60.336 42.304zM64 0C28.652 0 0 28.652 0 64S28.652 128 64 128S128 99.348 128 64S99.348 0 64 0z M25.532 59.96L20 59.388C22.96 67.668 28.812 74.292 37.564 79.26C38.392 72.396 41.644 66.72 47.324 62.224L42.124 61.684A22.012 22.012 0 0 1 60.336 42.304A24.336 24.336 0 0 0 48.388 37.564C51.112 32.764 54.336 28.832 58.056 25.776A38.69599999999999 38.69599999999999 0 0 0 25.532 59.96zM102.468 68.04L108 68.612C105.04 60.332 99.188 53.708 90.436 48.74C89.608 55.604 86.356 61.28 80.676 65.776L85.876 66.316A22.012 22.012 0 0 1 67.372 85.744A24.34 24.34 0 0 0 79.26 90.436C76.512 95.272 73.264 99.22 69.508 102.288A38.69599999999999 38.69599999999999 0 0 0 102.468 68.04z" />
    <glyph glyph-name="cny"
      unicode="&#xEA28;"
      horiz-adv-x="128" d=" M64 0C28.652 0 0 28.652 0 64S28.652 128 64 128S128 99.348 128 64S99.348 0 64 0zM36.684 96V88.3H91.948V96zM30.524 73.436V65.656H50.104V64.116C49.788 56.572 48.212 50.488 45.212 45.716C42.212 41.396 36.528 37.704 28 34.776L32.42 28C41.26 31 47.58 35.24 51.528 40.628C55.552 46.484 57.764 54.336 58.156 64.116V65.656H69.844V37.936C69.844 32.312 72.604 29.464 78.212 29.464H90.764C93.524 29.464 95.58 30.312 97 31.852C98.42 33.468 99.448 38.628 100 47.332L92.58 49.64C92.42 43.4 92.028 39.628 91.472 38.4C91 37.24 90.212 36.624 89.264 36.624H80.58C78.764 36.624 77.896 37.624 77.896 39.628V65.656H98.816V73.44z" />
    <glyph glyph-name="cred"
      unicode="&#xEA29;"
      horiz-adv-x="128" d=" M64 0C28.652 0 0 28.652 0 64S28.652 128 64 128S128 99.348 128 64S99.348 0 64 0zM48.544 64.136L43.532 59.052L62.472 40L104 81.844L98.988 86.928L62.468 50.168zM56.984 65.376L62.004 60.284L84.468 82.916L79.456 88zM47.88 46.056L29.004 65.2L24 60.12L42.936 41.072z" />
    <glyph glyph-name="crpt"
      unicode="&#xEA2A;"
      horiz-adv-x="128" d=" M64 0C28.652 0 0 28.652 0 64S28.652 128 64 128S128 99.348 128 64S99.348 0 64 0zM87.332 89.024L89.636 91.376C83.22 96.748 75.328 99.772 67.1 99.772C48.512 99.772 33.212 85.16 32.06 66.184H35.348C36.5 83.144 50.32 96.412 67.1 96.412C74.5 96.412 81.58 93.892 87.332 89.024zM86.18 77.94L88.488 80.288A26.62 26.62 0 0 1 67.1 91.208C52.292 91.208 40.284 78.944 40.284 64C40.284 48.888 52.292 36.628 67.1 36.628C75.492 36.628 83.384 40.66 88.488 47.544L86.18 49.896A23.46 23.46 0 0 0 67.1 39.984C54.104 39.984 43.576 50.736 43.576 64C43.576 77.1 54.104 87.848 67.096 87.848A23.452 23.452 0 0 0 86.18 77.94zM89.964 86.504C90.788 85.664 91.444 84.824 92.104 83.984L94.408 86.336C93.748 87.176 93.088 88.016 92.272 88.856zM66.936 28.064A34.752 34.752 0 0 1 89.472 36.46L87.168 38.808A31.067999999999998 31.067999999999998 0 0 0 66.936 31.42C50.156 31.42 36.336 44.688 35.184 61.648H31.896C33.048 42.672 48.348 28.064 66.936 28.064zM89.964 41.328L92.272 38.976C93.092 39.816 93.752 40.656 94.408 41.496L92.104 43.848C91.448 43.008 90.788 42.168 89.964 41.328zM27.292 64C27.292 86.336 45.22 104.64 67.1 104.64C78.944 104.64 90.128 99.264 97.7 89.86L100 92.212C91.776 102.292 79.764 108 67.1 108C43.412 108 24 88.352 24 64C24 39.82 43.248 20 67.1 20C79.932 20 91.78 25.712 100 35.788L97.696 38.136C90.128 28.564 78.944 23.36 67.096 23.36C45.22 23.36 27.292 41.664 27.292 64z" />
    <glyph glyph-name="cvc"
      unicode="&#xEA2B;"
      horiz-adv-x="128" d=" M64 0C28.652 0 0 28.652 0 64S28.652 128 64 128S128 99.348 128 64S99.348 0 64 0zM68.644 60.884A9.368 9.368 0 0 1 73.964 69.312C73.964 74.488 69.716 78.684 64.484 78.684C59.244 78.684 54.992 74.488 54.992 69.312A9.36 9.36 0 0 1 60.32 60.888V49.312H68.644V60.884zM64.484 34C47.74 34 34.124 47.456 34.124 64S47.74 94 64.484 94C78.144 94 89.724 85.04 93.524 72.752H103.988C99.948 90.632 83.796 104 64.48 104C42.124 104 24 86.092 24 64S42.124 24 64.48 24C83.796 24 99.948 37.368 103.988 55.248H93.52C89.72 42.96 78.14 34 64.48 34z" />
    <glyph glyph-name="dash"
      unicode="&#xEA2C;"
      horiz-adv-x="128" d=" M64 0C28.652 0 0 28.652 0 64S28.652 128 64 128S128 99.348 128 64S99.348 0 64 0zM25.524 69.256L21.484 57.448H52.496L56.456 69.256H25.524zM39.924 88.84L35.884 76.116H106.284S109.868 88.836 97.296 88.836H39.92zM23.468 37.868H81.144C93.104 37.868 98.132 50.588 98.132 50.588H27.58L23.468 37.868zM88.076 76.116L79.848 50.592H98.132L106.284 76.112H88.08z" />
    <glyph glyph-name="dat"
      unicode="&#xEA2D;"
      horiz-adv-x="128" d=" M64 0C28.652 0 0 28.652 0 64S28.652 128 64 128S128 99.348 128 64S99.348 0 64 0zM80.216 105.576C78.712 105.576 77.452 105.096 76.428 104.14C75.468 103.184 74.992 101.924 74.992 100.352V72.704A25.224 25.224 0 0 1 55.232 82.024C50.312 82.024 45.844 80.792 41.816 78.336C37.856 75.88 34.716 72.464 32.396 68.096C30.14 63.796 29.016 58.984 29.016 53.656S30.244 43.484 32.7 39.116A27.528 27.528 0 0 1 42.84 28.876C47.208 26.42 52.02 25.192 57.28 25.192C62.536 25.192 67.28 26.42 71.512 28.876A27.528 27.528 0 0 1 81.648 39.116C84.176 43.484 85.436 48.332 85.436 53.656V100.352C85.436 101.924 84.96 103.184 84.004 104.14C83.048 105.1 81.784 105.576 80.216 105.576zM57.276 34.408C53.864 34.408 50.756 35.224 47.956 36.864A18.92 18.92 0 0 0 41.404 43.824C39.836 46.764 39.052 50.04 39.052 53.656S39.836 60.52 41.404 63.384A18.112 18.112 0 0 0 47.96 70.248C50.76 71.952 53.864 72.808 57.28 72.808C60.692 72.808 63.76 71.952 66.492 70.248C69.292 68.608 71.476 66.32 73.048 63.384C74.616 60.52 75.404 57.276 75.404 53.656S74.616 46.764 73.044 43.828A17.872 17.872 0 0 0 66.492 36.864C63.764 35.224 60.692 34.408 57.276 34.408z" />
    <glyph glyph-name="data"
      unicode="&#xEA2E;"
      horiz-adv-x="128" d=" M64 0C28.652 0 0 28.652 0 64S28.652 128 64 128S128 99.348 128 64S99.348 0 64 0zM96.56 88.344L102.988 94.72C104.508 96.224 104.192 98.976 102.292 100.86C100.392 102.748 97.612 103.056 96.096 101.548L84.032 89.588L83.62 89.176L73.108 78.756C66.036 83.888 56.028 83.284 49.64 76.956A17.856000000000005 17.856000000000005 0 0 1 47.824 53.688L39.8 45.728A31.376 31.376 0 0 0 35.044 54.9C32.352 63.052 33.076 71.98 37.444 79.34C44.256 90.82 56.444 95.812 67.996 94.348A4.28 4.28 0 0 1 72.86 98.292A5.228 5.228 0 0 1 68.164 103.788C56.56 104.976 44.564 101.188 35.704 92.404C21.024 77.852 20.164 54.768 33.064 39.052L25.704 31.752C24.252 30.312 24.612 27.612 26.516 25.728C28.416 23.844 31.136 23.48 32.588 24.92L40.512 32.776H40.516L46.244 38.456L46.256 38.472L55.544 47.68A18.232 18.232 0 0 1 75.224 51.584A17.852 17.852 0 0 1 79.164 71.1L89.7 81.544C97.424 69.912 95.892 53.808 85.26 43.272A31.544000000000004 31.544000000000004 0 0 0 60.74 34.156A3.912 3.912 0 0 1 56.62 30.604L56.508 29.324A4.152 4.152 0 0 1 60.472 24.804A41.224 41.224 0 0 1 91.8 36.788C106.188 51.056 107.852 73.032 96.56 88.348zM68.556 58.204A8.72 8.72 0 0 0 56.316 58.204A8.54 8.54 0 0 0 56.316 70.336A8.715999999999998 8.715999999999998 0 0 0 68.556 70.336A8.54 8.54 0 0 0 68.556 58.204z" />
    <glyph glyph-name="dbc"
      unicode="&#xEA2F;"
      horiz-adv-x="128" d=" M64 0C28.652 0 0 28.652 0 64S28.652 128 64 128S128 99.348 128 64S99.348 0 64 0zM55.14 60.288C55.772 60.952 55.772 61.408 55.1 62.04C53.8 63.272 52.488 64.496 51.188 65.728L45.156 71.452C44.636 71.948 44.104 72.436 43.58 72.928C43.284 73.208 42.952 73.336 42.528 73.232C42.168 73.14 41.8 73.052 41.436 73.06C40.868 73.076 40.572 72.78 40.304 72.348C38.084 68.788 35.852 65.232 33.624 61.676C32.536 59.932 31.44 58.188 30.356 56.436C29.88 55.664 30.208 55.016 31.116 54.896L35.648 54.304C37.636 54.048 39.62 53.784 41.608 53.544C42.572 53.428 42.868 53.164 42.984 52.216C43.072 51.492 43.168 50.768 43.28 50.048C43.352 49.58 43.748 49.256 44.268 49.172C44.508 49.332 44.796 49.46 44.996 49.668C46.188 50.9 47.356 52.152 48.536 53.388L55.136 60.288zM99.5 51.012C97.908 52.356 96.288 53.668 94.728 55.044C94.076 55.62 93.428 55.856 92.584 55.588A2.188 2.188 0 0 0 90.912 55.724C90.208 56.084 89.612 55.964 88.972 55.548C85.94 53.588 82.892 51.656 79.852 49.716L74.42 46.244C73.972 45.956 73.64 45.6 73.624 45.036L73.488 40.256A1.8920000000000001 1.8920000000000001 0 0 1 74.028 38.68C75.02 37.54 76.004 36.388 76.988 35.24L79.36 32.504A1.308 1.308 0 0 1 80.22 32.012C81.16 31.904 81.856 32.492 81.844 33.432C81.836 34.252 81.784 35.072 81.752 35.888A1.372 1.372 0 0 0 82.252 37.016C82.436 37.176 82.64 37.32 82.844 37.452L89.416 41.712C92.816 43.916 96.216 46.128 99.616 48.328C100.192 48.7 100.464 49.196 100.364 49.872C100.284 50.404 99.876 50.7 99.504 51.012zM70.308 47.044C68.7 48.664 67.068 50.256 65.448 51.864L58.252 59.024A1.544 1.544 0 0 1 56.004 58.912C54.204 57.012 52.4 55.116 50.596 53.224C48.924 51.476 47.26 49.724 45.576 47.988C44.828 47.224 44.84 46.268 45.624 45.556C47.024 44.276 48.38 42.944 49.756 41.636C49.996 41.404 50.256 41.184 50.504 40.956A1.32 1.32 0 0 1 51.464 40.576H52.248C53.312 40.632 54.464 40.704 55.62 40.748C57.576 40.828 59.532 40.88 61.488 40.972C61.972 40.992 62.504 41.012 62.928 41.212C65.288 42.3 67.624 43.44 69.968 44.572C70.668 44.908 70.968 45.416 70.816 46.16A1.8800000000000001 1.8800000000000001 0 0 1 70.308 47.044zM80.22 79.24C80.584 78.68 80.924 78.096 81.272 77.52C84.352 72.452 87.444 67.388 90.504 62.308A1.96 1.96 0 0 1 93.732 62.088C95.824 64.908 97.944 67.712 100.04 70.528A2.656 2.656 0 0 1 100.656 72.12L100.744 72.16C100.596 72.5 100.496 72.872 100.296 73.18C98.808 75.468 97.3 77.748 95.796 80.028C95.084 81.108 94.376 82.2 93.656 83.276C93.24 83.9 92.64 84.248 91.884 84.116C88.456 83.516 85.036 82.864 81.604 82.292C80.32 82.08 79.444 80.432 80.22 79.24zM74.2 65.112L74.808 70.408L75.328 74.928L75.728 78.448C75.688 78.52 75.62 78.764 75.484 78.808C75.32 78.864 75.088 78.768 74.9 78.704C74.808 78.672 74.74 78.564 74.668 78.484L72.044 75.724C70.26 73.852 68.484 71.976 66.696 70.104L58.864 61.908C58.316 61.336 58.32 61.168 58.888 60.64C60.6 59.04 62.308 57.44 64.008 55.828C65.968 53.98 67.924 52.12 69.88 50.268C70.424 49.748 70.964 49.228 71.532 48.736C71.66 48.628 71.916 48.548 72.06 48.604C72.204 48.66 72.336 48.884 72.372 49.052C72.448 49.404 72.452 49.772 72.492 50.136L73.084 55.34C73.252 56.82 73.432 58.296 73.6 59.772L74.2 65.112zM89.424 61.032C88.728 62.164 88.048 63.304 87.36 64.44L79.54 77.304C79.328 77.656 79.128 78.02 78.884 78.348C78.792 78.468 78.564 78.584 78.424 78.56C78.292 78.536 78.176 78.34 78.072 78.208C78.032 78.152 78.032 78.064 78.016 77.988L77.62 75.148L76.572 67.524L75.492 59.72L74.504 52.592L74.064 49.36C74.104 49.236 74.12 48.976 74.248 48.792C74.476 48.456 74.904 48.432 75.32 48.7C76.372 49.364 77.42 50.032 78.468 50.704C81.804 52.84 85.136 54.98 88.484 57.104C88.912 57.372 89.12 57.68 89.072 58.184A2.468 2.468 0 0 0 89.44 59.8C89.72 60.228 89.68 60.62 89.424 61.036zM73.212 80.648L70.312 80.14L58.432 78.056L48.372 76.296C47.324 76.116 46.276 75.936 45.232 75.748C44.66 75.648 44.372 75.364 44.332 74.864C44.304 74.496 44.504 74.236 44.756 73.996C46.644 72.224 48.532 70.452 50.412 68.676C52.348 66.848 54.28 65.008 56.212 63.176C56.832 62.584 57.316 62.584 57.912 63.208C59.572 64.944 61.22 66.692 62.876 68.432L70.804 76.728L73.524 79.588C73.724 79.8 73.9 80.048 73.704 80.312C73.576 80.484 73.336 80.568 73.212 80.648zM46.256 78.12C46.096 78.008 45.964 77.856 45.816 77.724L45.904 77.56C46.052 77.56 46.2 77.536 46.344 77.56L56.624 79.408L66.04 81.1C68.692 81.576 71.344 82.06 74 82.532C74.36 82.596 74.56 82.772 74.692 83.108C74.836 83.456 75.028 83.788 75.244 84.1C75.412 84.348 75.5 84.58 75.364 84.86L74.888 85.9C73.652 88.564 72.416 91.232 71.172 93.896C70.872 94.544 70.492 94.628 69.892 94.22L51.852 81.932C49.984 80.664 48.12 79.396 46.256 78.12zM27.496 72.016C27.724 72.068 27.952 72.096 28.168 72.172C31.372 73.312 34.576 74.464 37.784 75.592A1.44 1.44 0 0 1 38.78 76.632A2.768 2.768 0 0 0 40.828 78.672A1.7359999999999998 1.7359999999999998 0 0 1 42.028 79.692C43.132 81.984 44.26 84.268 45.372 86.556C45.98 87.804 46.588 89.048 47.176 90.304A1.436 1.436 0 0 1 47.04 91.86A1.392 1.392 0 0 1 45.624 92.436A2.552 2.552 0 0 1 44.82 92.116C40.916 89.868 37.02 87.612 33.116 85.368A2.6359999999999997 2.6359999999999997 0 0 1 32.116 84.388C30.652 81.872 29.172 79.364 27.7 76.848C27.188 75.98 26.66 75.124 26.184 74.236C25.62 73.184 26.32 72.036 27.5 72.016zM44.108 79.32C44.092 79.02 44.36 78.852 44.64 78.972C44.764 79.028 44.88 79.112 44.992 79.188L49.712 82.404L64.488 92.456L66.96 94.14C67.28 94.356 67.528 94.612 67.5 95C67.5 95.636 67.052 96.028 66.404 96C65.496 95.956 64.588 95.892 63.684 95.856L55.964 95.564C54.656 95.512 53.348 95.444 52.04 95.404C51.544 95.384 51.252 95.164 51.052 94.724C50.192 92.808 49.308 90.9 48.436 88.988C47.036 85.924 45.636 82.864 44.244 79.8A1.384 1.384 0 0 1 44.108 79.32zM38.656 72.72C38.784 72.92 38.94 73.132 38.752 73.384C38.544 73.664 38.292 73.552 38.04 73.476L36.98 73.148L28.92 70.588C27.496 70.136 26.072 69.684 24.648 69.224C24.172 69.068 24.008 68.852 24 68.344C24.024 68.252 24.068 68.06 24.132 67.872L26.812 60.344C27.116 59.484 27.416 58.624 27.74 57.768C27.94 57.232 28.5 57.02 28.924 57.328A1.7 1.7 0 0 1 29.328 57.812L36.688 69.572C37.344 70.624 38.004 71.668 38.656 72.72zM103.128 62.284C102.82 64.036 102.508 65.784 102.204 67.536C102.116 68.052 101.844 68.416 101.316 68.536C100.812 68.644 100.416 68.444 100.116 68.032L99.216 66.82C97.74 64.832 96.272 62.84 94.792 60.86C94.472 60.424 94.388 59.988 94.636 59.496C94.896 58.984 94.916 58.432 94.82 57.888C94.724 57.344 94.9 56.948 95.308 56.608C97.12 55.092 98.932 53.576 100.736 52.052C101.6159999999999 51.312 102.4879999999999 51.568 102.792 52.668L103.852 56.492C103.9159999999999 56.728 103.956 56.968 103.9999999999999 57.164C103.9759999999999 57.36 103.9599999999999 57.512 103.936 57.66L103.1279999999999 62.284zM72.872 94.06L75.052 89.332C75.624 88.104 76.204 86.88 76.772 85.652C76.908 85.348 77.092 85.132 77.452 85.12C78.44 85.08 79.212 84.64 79.84 83.908C79.952 83.78 80.128 83.712 80.22 83.652L80.54 83.716C83.764 84.296 86.992 84.88 90.22 85.456C90.516 85.508 90.768 85.576 90.824 85.912C90.88 86.248 90.664 86.404 90.4 86.536L88.012 87.736L74.564 94.456C74.232 94.616 73.916 94.816 73.564 94.928A0.96 0.96 0 0 1 72.884 94.884C72.644 94.748 72.684 94.468 72.796 94.228L72.872 94.06z" />
    <glyph glyph-name="dcn"
      unicode="&#xEA30;"
      horiz-adv-x="128" d=" M100.848 28.32C89.296 47.212 80.576 67.372 74.38 88.624C70.98 100.292 67.804 112.024 64.524 123.728A4.304 4.304 0 0 1 63.604 125.548C63.092 123.932 62.536 122.332 62.072 120.708C56.844 102.464 51.36 84.296 44.508 66.596C38.048 49.908 28.096 32.62 18.548 17.528C18.464 17.4 12.28 17.4 0 17.528V128H128V16H108.52A1411.796 1411.796 0 0 0 100.848 28.32zM84.588 0H54.068L41.484 3.248A87007.2 87007.2 0 0 0 62.964 63.74L63.58 63.728C68.04 50.328 75.04 29.08 84.588 0z" />
    <glyph glyph-name="dcr"
      unicode="&#xEA31;"
      horiz-adv-x="128" d=" M64 0C28.652 0 0 28.652 0 64S28.652 128 64 128S128 99.348 128 64S99.348 0 64 0zM59.424 57.52L83.516 36.492H99.476L85.54 48.66A22.528 22.528 0 0 1 99.06 73.82A22.408 22.408 0 0 1 77.096 92H59.42L71.476 81.484H77.1A11.948 11.948 0 0 0 89.012 69.504A11.948 11.948 0 0 0 77.1 57.524H59.42zM68.052 70.96L43.972 92H28.012L41.936 79.828A22.528 22.528 0 0 1 28.416 54.668A22.408 22.408 0 0 1 50.376 36.488H68.048L56 47H50.372A11.948 11.948 0 0 0 38.46 58.98A11.948 11.948 0 0 0 50.372 70.96H68.052z" />
    <glyph glyph-name="dent"
      unicode="&#xEA32;"
      horiz-adv-x="128" d=" M64 0C28.652 0 0 28.652 0 64S28.652 128 64 128S128 99.348 128 64S99.348 0 64 0zM99.536 53.972L81.852 64L99.536 74.028A8.68 8.68 0 0 1 102.804 86C100.34 90.192 94.88 91.628 90.612 89.208L72.924 79.18V99.24C72.924 104.076 68.928 108 64 108C59.072 108 55.076 104.076 55.076 99.236V79.18L37.388 89.208C33.12 91.628 27.66 90.192 25.2 86A8.68 8.68 0 0 1 28.468 74.028L46.148 64L28.468 53.972A8.68 8.68 0 0 1 25.196 42C27.66 37.808 33.12 36.372 37.388 38.792L55.076 48.82V28.764C55.076 23.924 59.072 20 64 20C68.928 20 72.924 23.924 72.924 28.764V48.82L90.612 38.792C94.88 36.372 100.34 37.808 102.804 42A8.68 8.68 0 0 1 99.536 53.972zM100.328 43.404A6.132 6.132 0 0 0 92.04 41.22L72.924 52.06V58.94L78.996 62.38L98.108 51.544C101.012 49.9 102.004 46.252 100.328 43.404zM70.068 28.764C70.068 25.472 67.352 22.804 64 22.804C60.648 22.804 57.932 25.472 57.932 28.764V50.44L64 53.88L70.068 50.44zM35.96 41.22A6.132 6.132 0 0 0 27.672 43.404A5.904 5.904 0 0 0 29.892 51.544L49.004 62.384L55.076 58.94V52.06zM29.892 76.456A5.904 5.904 0 0 0 27.672 84.596A6.132 6.132 0 0 0 35.96 86.78L55.076 75.94V69.06L49.004 65.62zM57.932 99.236C57.932 102.528 60.652 105.196 64 105.196C67.352 105.196 70.068 102.528 70.068 99.236V77.564L64 74.12L57.932 77.56zM72.924 65.82L76.14 64L72.924 62.18zM66.856 72.5L70.068 74.324V70.68zM57.932 70.68V74.32L61.144 72.5zM55.076 62.18L51.86 64L55.076 65.82zM61.144 55.5L57.932 53.676V57.32zM70.068 57.32V53.68L66.856 55.5zM64 57.12L57.932 60.56V67.44L64 70.88L70.068 67.44V60.56zM92.04 86.78A6.132 6.132 0 0 0 100.328 84.596C102.008 81.748 101.008 78.1 98.108 76.456L78.996 65.616L72.924 69.06V75.94z" />
    <glyph glyph-name="dgb"
      unicode="&#xEA33;"
      horiz-adv-x="128" d=" M64 0C28.652 0 0 28.652 0 64S28.652 128 64 128S128 99.348 128 64S99.348 0 64 0zM49.472 28H56.944C57.992 28 58.372 28.268 58.752 29.272C59.368 30.904 59.992 32.532 60.58 34.176C60.744 34.648 61 34.856 61.476 34.976C66.836 36.264 72.012 38.088 76.908 40.684C81.444 43.092 85.58 46.068 89.164 49.812C94.364 55.252 97.956 61.7 100.484 68.796C101.552 71.796 102.14 74.9 101.972 78.116C101.796 81.44 100.688 84.38 98.456 86.844C96.808 88.664 94.804 89.964 92.6 90.96C89.7 92.268 86.64 92.98 83.504 93.364C83.324 93.388 83.144 93.428 82.92 93.468L83.164 94.16C83.716 95.628 84.272 97.092 84.812 98.568C85.152 99.488 84.812 99.992 83.86 99.996C81.604 100.004 79.344 99.996 77.088 99.996C76.556 99.996 76.548 99.992 76.348 99.46L74.364 94.192C74.296 94.012 74.208 93.836 74.132 93.66H70.912C71 93.932 71.068 94.16 71.152 94.38C71.644 95.708 72.148 97.028 72.64 98.352C72.72 98.56 72.8 98.768 72.832 98.984C72.908 99.504 72.616 99.904 72.112 99.984C71.94 100.008 71.764 99.996 71.592 99.996H64.456L62.052 93.636H38.592A3.016 3.016 0 0 1 35.768 91.964L30.216 81.964C30.136 81.82 30.096 81.656 30 81.42H74.08C76.352 81.404 78.456 80.828 80.328 79.48C81.74 78.456 82.688 77.088 83.12 75.36C83.516 73.78 83.424 72.196 83.132 70.616A26.844 26.844 0 0 0 80.452 62.876C74.58 51.768 65.492 45.856 53.108 45.316C52.928 45.308 52.748 45.332 52.516 45.348C52.62 45.648 52.692 45.88 52.776 46.104L61.008 68C61.636 69.672 62.284 71.34 62.892 73.024C63.356 74.296 62.62 75.416 61.296 75.516C61.168 75.524 61.036 75.524 60.908 75.524H47.824C47.632 75.524 47.444 75.496 47.284 75.484C46.644 74.256 30.444 33.408 30.392 32.876C33.232 32.552 36.084 32.5 39.016 32.424L37.408 28.084C37.54 28.044 37.6 28.008 37.66 28.008C40.18 28.008 42.696 28 45.212 28.008C45.784 28.008 46.196 28.32 46.464 28.82C46.588 29.052 46.668 29.308 46.764 29.556L47.988 32.796L51.388 33.128L49.472 28z" />
    <glyph glyph-name="dgd"
      unicode="&#xEA34;"
      horiz-adv-x="128" d=" M64 0C28.652 0 0 28.652 0 64S28.652 128 64 128S128 99.348 128 64S99.348 0 64 0zM22 84V44H62V84H22zM50 72V84H54V68H22V72H50zM30 60H54V52H30V60zM106 76V84H66V44H106V68H82V60H98V52H74V76H106z" />
    <glyph glyph-name="doge"
      unicode="&#xEA35;"
      horiz-adv-x="128" d=" M64 0C28.652 0 0 28.652 0 64S28.652 128 64 128S128 99.348 128 64S99.348 0 64 0zM41.928 60.416V32H68.124C72.964 32 77.152 32.84 80.692 34.508C84.232 36.184 87.12 38.468 89.364 41.368C91.604 44.264 93.272 47.656 94.364 51.54C95.456 55.424 96 59.58 96 64A45.88 45.88 0 0 1 94.36 76.46C93.272 80.34 91.604 83.736 89.36 86.632C87.12 89.532 84.232 91.816 80.692 93.492C77.152 95.16 72.96 96 68.12 96H41.924V69.56H36V60.416H41.928zM52.992 69.556V86.856H63.876C68.184 86.856 71.708 86.276 74.452 85.108C77.196 83.944 79.348 82.332 80.912 80.268C82.472 78.208 83.536 75.788 84.096 73.008C84.656 70.228 84.936 67.228 84.936 64C84.936 60.772 84.656 57.772 84.096 54.992C83.536 52.212 82.476 49.792 80.912 47.732C79.348 45.668 77.192 44.056 74.452 42.892C71.708 41.724 68.184 41.144 63.876 41.144H52.992V60.416H70.248V69.556H52.992z" />
    <glyph glyph-name="drgn"
      unicode="&#xEA36;"
      horiz-adv-x="128" d=" M37.612 88.172L37.6 44.88H48.872L48.584 74.188L81.704 32.136L90.616 20.816L90.544 27.108L90.428 83.824H79.332L79.62 54.28L38.308 106.776L37.616 107.656V91.864L37.6 88.184L37.612 88.172zM64 0C28.652 0 0 28.652 0 64S28.652 128 64 128S128 99.348 128 64S99.348 0 64 0z M37.612 88.172L81.708 32.132L48.584 74.188L48.872 44.88H37.6L37.612 88.172zM37.612 91.864L37.616 107.652L38.308 106.776L37.664 107.592L37.612 91.864zM79.62 54.28L79.332 83.824H90.428L90.548 27.104L90.396 40.584L79.62 54.28z" />
    <glyph glyph-name="edg"
      unicode="&#xEA37;"
      horiz-adv-x="128" d=" M64 0C28.652 0 0 28.652 0 64S28.652 128 64 128S128 99.348 128 64S99.348 0 64 0zM99.96 77.992C99.96 79.584 99.584 81.172 98.932 82.612C97.9 84.896 96.312 87.032 94.148 88.316C86.028 93.084 77.9 97.812 69.784 102.576C68.856 103.12 67.808 103.424 66.78 103.712A14.256 14.256 0 0 1 59.844 103.32C58.512 102.864 57.348 102.032 56.124 101.352C48.66 96.992 41.204 92.632 33.744 88.288A9.88 9.88 0 0 1 31.188 86.032C29.428 83.912 28.188 81.264 28.036 78.464V49.72C28.036 47.796 28.676 45.948 29.556 44.268C30.636 42.332 32.1 40.532 34.06 39.44C42.084 34.76 50.112 30.068 58.14 25.392C59.32 24.712 60.632 24.316 61.98 24.136C64.564 23.816 67.316 24.028 69.644 25.272C77.268 29.72 84.872 34.172 92.5 38.608C93.62 39.276 94.8 39.864 95.744 40.768A13.879999999999999 13.879999999999999 0 0 1 99.752 47.812C100.02 48.972 99.96 50.184 99.96 51.368V77.992zM63.76 87.896A0.9400000000000001 0.9400000000000001 0 0 0 64.328 87.364C65.776 84.668 67.808 82.34 69.932 80.16C71.308 78.812 72.324 77.056 72.668 75.136C73.12 73 71.864 70.636 69.844 69.864C68.364 69.288 66.644 69.396 65.224 70.092C64.956 70.184 64.504 70.5 64.344 70.124C64.612 68.276 65.556 66.66 66.408 65.056C66.616 64.708 66.216 64.464 66.02 64.24C65.14 63.424 64.392 62.452 63.436 61.712C63.152 61.804 62.956 62.076 62.748 62.272C61.928 63.136 61.06 63.968 60.24 64.848C60.224 64.908 60.208 65.06 60.196 65.12C61.108 66.756 62.26 68.36 62.556 70.252A1.5719999999999998 1.5719999999999998 0 0 1 61.688 70.132C60.18 69.54 58.456 69.404 56.936 70.012A4.5 4.5 0 0 0 54.108 73.632C53.956 74.828 54.316 76.02 54.852 77.072C55.52 78.552 56.644 79.748 57.812 80.856A42.704 42.704 0 0 1 63.76 87.896zM49.228 61.856A8.412 8.412 0 0 0 56.824 62.376C57.016 62.296 57.064 62.256 57.212 62.16C57.988 61.856 58.66 61.36 59.288 60.8C60.708 59.572 61.856 58.06 63.308 56.864C64.716 58.196 66.012 59.652 67.436 60.948C69.436 62.796 72.368 63.34 74.964 62.812C79.032 62.012 82.052 57.804 81.764 53.636C81.632 51.004 80.32 48.4 78.164 46.9C76.7 45.884 74.964 45.16 73.168 45.204C70.808 45.112 68.492 46.172 66.82 47.824C63.664 50.984 60.62 54.256 57.448 57.408C56.52 58.408 55.264 59.136 53.888 59.224A5.824 5.824 0 0 1 51.052 58.584C49.692 57.86 48.78 56.408 48.556 54.876C48.276 53.256 48.856 51.504 50.064 50.396C51.932 48.592 55.208 48.608 57.028 50.456C57.492 50.848 57.924 51.636 58.644 51.32C59.092 51.048 59.404 50.592 59.796 50.24C60.096 49.896 60.556 49.608 60.6 49.092C60.6 48.572 60.14 48.276 59.824 47.94C58.984 47.06 58.016 46.32 56.88 45.864C54.68 45 52.144 44.984 49.96 45.924C46.504 47.484 44.28 51.468 44.832 55.284C45.224 57.996 46.824 60.552 49.232 61.856zM69.376 57.648C68.272 56.496 67.136 55.392 66.028 54.24C66.044 54.164 66.06 54 66.072 53.908C67.404 52.668 68.568 51.26 69.956 50.08C71.824 48.488 74.8 48.7 76.532 50.384C78.224 52.032 78.612 54.908 77.292 56.904A4.848 4.848 0 0 1 73.332 59.164C71.876 59.284 70.412 58.68 69.376 57.644z" />
    <glyph glyph-name="edoge"
      unicode="&#xEA38;"
      horiz-adv-x="128" d=" M64 0C28.652 0 0 28.652 0 64S28.652 128 64 128S128 99.348 128 64S99.348 0 64 0zM37.884 91.936C35.852 91.936 33.724 92.12 31.876 91.216C30.904 89.72 30.676 87.592 31.832 86.096C32.94 85.1 34.556 85.1 35.992 85.056C42.416 85.056 48.84 85.1 55.268 85.056C55.084 79.488 55.268 73.872 55.176 68.256C49.444 68.256 43.664 68.304 37.936 68.256C36.456 68.256 34.696 67.984 34.048 66.492C33.54 65.132 33.54 63.368 34.696 62.328C35.668 61.512 37.056 61.512 38.304 61.464C43.944 61.464 49.536 61.512 55.176 61.464C55.176 55.352 55.084 49.196 55.22 43.04C47.916 42.904 40.568 43.128 33.26 42.904C30.168 43.084 29.012 38.916 30.952 36.972C32.06 35.972 33.68 36.112 35.112 36.02C48.24 36.02 61.324 35.976 74.452 36.02C81.2 36.064 88.32 37.74 93.404 42.312C99.136 47.296 101.632 54.944 101.956 62.232C102.28 69.572 100.848 77.448 95.948 83.288C91.788 88.316 85.36 90.94 78.936 91.62C72.508 92.208 68.228 91.94 59.616 91.94H37.88zM63.22 68.256V82.7C63.264 83.516 63.312 84.648 64.236 84.92C67.148 85.192 69.836 85.1 72.972 85.1C78.472 85.42 84.392 84.06 88.32 80.076C92.664 75.636 93.776 69.116 93.636 63.188C93.544 57.844 92.156 52.228 88.364 48.2C84.668 44.352 79.124 42.72 73.852 42.948C70.304 42.948 67.564 42.856 64.42 43.128C63.264 43.22 63.22 44.576 63.172 45.484C63.172 50.824 63.22 56.124 63.172 61.464C65.808 61.512 68.492 61.24 71.076 61.648C74.268 62.1 74.268 67.624 71.124 68.076C68.488 68.436 65.852 68.212 63.22 68.256z" />
    <glyph glyph-name="elf"
      unicode="&#xEA39;"
      horiz-adv-x="128" d=" M64 0C28.652 0 0 28.652 0 64S28.652 128 64 128S128 99.348 128 64S99.348 0 64 0zM104 64.152C104.004 73.416 96.836 80.692 87.64 80.752C78.632 80.812 71.2 73.356 71.152 64.212C71.104 55.064 78.456 47.572 87.512 47.548C96.76 47.52 103.996 54.808 104 64.148zM36.36 32.32C40.052 32.304 43.3 33.596 45.508 36.536C46.884 38.364 47.7 40.688 48.468 42.896C49.876 46.944 51.756 50.488 56.036 52.044C58.428 52.912 60.764 52.152 63.116 51.74C65.78 51.276 67.908 52.668 68.616 55.26A4.712 4.712 0 0 1 65.936 60.868C63.592 61.876 60.952 60.992 59.788 58.616C58.644 56.28 56.84 54.684 54.72 53.368C53.26 52.46 51.68 52.08 50.028 52.624C47.368 53.496 44.756 54.532 42.084 55.368C40.204 55.956 38.268 56.676 36.34 56.72C29.632 56.876 24.3 51.36 24.276 44.536A12.076 12.076 0 0 1 36.36 32.32zM36.104 95.672C27.208 95.672 21.368 86.312 25.192 78.192A12.072 12.072 0 0 1 42.128 72.76C43.736 73.652 45.34 74.608 47.048 75.252C51.968 77.1 55.588 76.02 58.848 71.9C59.328 71.3 59.728 70.632 60.156 69.992C61.356 68.204 63.568 67.376 65.524 67.984C67.736 68.676 68.952 70.396 68.9 72.76C68.824 76.168 65.66 78.28 62.368 77.08C58.656 75.724 52.804 76.208 50.472 81.172C49.532 83.172 48.424 85.12 47.688 87.204C45.832 92.468 41.572 95.672 36.104 95.672zM74.224 32.04C74.276 36.528 70.828 40.248 66.316 40.204C61.6 40.16 58.208 36.404 58.328 31.788C58.432 27.708 61.952 24.08 66.168 24C70.524 23.92 74.176 27.564 74.228 32.04zM58.376 95.92C58.168 92.008 61.18 87.884 66.296 87.788C70.792 87.704 74.208 91.364 74.24 95.928C74.276 100.268 70.668 103.96 66.356 104C61.92 104.04 58.372 100.448 58.376 95.92z" />
    <glyph glyph-name="ella"
      unicode="&#xEA3A;"
      horiz-adv-x="128" d=" M64 0C28.652 0 0 28.652 0 64S28.652 128 64 128S128 99.348 128 64S99.348 0 64 0zM72.292 75.152L81.12 83.98L64 108L47 83.752L55.652 75.096L64 83.44zM52.76 72.2L43.96 81L20 64L44.224 47.084L52.848 55.708L44.56 64zM75.096 55.652L83.824 46.924L108 64L84.088 81.16L75.184 72.256L83.44 64zM55.744 52.812L47.184 44.256L64 20L80.928 44.028L72.2 52.76L64 44.56zM64 77.892L50.112 64L64 50.112L77.888 64z" />
    <glyph glyph-name="emc"
      unicode="&#xEA3B;"
      horiz-adv-x="128" d=" M64 0C28.652 0 0 28.652 0 64S28.652 128 64 128S128 99.348 128 64S99.348 0 64 0zM32 96V83.2H57.6V70.4H32V57.6H70.4V83.2H83.2V44.8H32V32H96V96H32z" />
    <glyph glyph-name="emc2"
      unicode="&#xEA3C;"
      horiz-adv-x="128" d=" M64 0C28.652 0 0 28.652 0 64S28.652 128 64 128S128 99.348 128 64S99.348 0 64 0zM24 36.008H76.38L83.952 51.364H31.576L24 36zM34.04 56.368H86.424L93.976 71.68H41.6L34.048 56.368zM44.068 76.688H96.44L104 92H51.62L44.068 76.684z M31.576 51.36H66.7L59.124 36.008H24L31.576 51.364zM34.044 56.368L41.6 71.68H76.72L69.168 56.368H34.04zM44.068 76.688L51.62 92H86.744L79.188 76.684H44.068z M31.576 51.356H49.164L41.592 36H24L31.576 51.356zM41.596 71.676H59.188L51.64 56.36H34.04L41.6 71.68zM51.62 91.996H69.212L61.656 76.676H44.068L51.62 92z" />
    <glyph glyph-name="eng"
      unicode="&#xEA3D;"
      horiz-adv-x="128" d=" M64 0C28.652 0 0 28.652 0 64S28.652 128 64 128S128 99.348 128 64S99.348 0 64 0zM100.596 86.82A7.120000000000001 7.120000000000001 0 0 0 100.34 86.972L100.332 86.976L100.324 86.98L89.656 93.188L82.876 97.136L75.932 101.176C72.212 103.336 68.372 105.576 64.584 107.772L64.2 108L63.788 107.84A7.320000000000001 7.320000000000001 0 0 1 62.728 107.34L62.688 107.316L46.808 97.896L39.856 93.776C35.66 91.288 31.32 88.716 27.08 86.184C26.04 85.684 26.068 84.576 26.08 84.04L26.084 83.912V83.672C26.068 73.944 26.056 63.884 26.032 53.98L26 42.972C25.944 42.156 26.32 41.44 26.952 41.132C34.52 36.78 42.2 32.348 49.624 28.064L62.992 20.352A2.084 2.084 0 0 1 64.084 20A1.3999999999999997 1.3999999999999997 0 0 1 64.94 20.288L84.32 31.6L91.6 35.848C94.616 37.612 97.74 39.44 100.8 41.22A1.908 1.908 0 0 1 101.928 43.108L101.988 84.776C102.092 86.016 101.048 86.576 100.592 86.816zM65.52 24.14L65.544 41.912L72.12 45.732C73.94 46.796 75.8 47.876 77.6 48.92L82.576 51.816L82.58 51.82L82.684 51.888A2.288 2.288 0 0 1 83.42 52.524L83.6 52.772V53.076C83.568 56.876 83.56 61.1 83.572 66.376L83.576 68.824V73.48L98.976 82.488L98.952 67.028L98.916 43.632A19663.1 19663.1 0 0 1 77.368 31.06zM48.736 74.36L64.024 83.336L79.156 74.408L64.048 65.576L58.832 68.572A4590.304 4590.304 0 0 1 48.736 74.36zM47.176 71.76L62.556 62.94L62.532 45.42L47.46 54.204zM29.096 82.136L44.136 73.496L44.464 53.664C44.424 52.884 44.808 52.172 45.428 51.88C47.568 50.628 49.748 49.36 51.856 48.136L55.968 45.74L62.528 41.92L62.516 24.12L29.02 43.44zM97.472 85.12L82.152 76.168L65.052 86.252A1.792 1.792 0 0 1 63.052 86.292L45.72 76.12L30.6 84.776L41.104 91.004C48.144 95.184 55.652 99.632 64.048 104.592C71.608 100.168 78.928 95.912 85.104 92.328C87.264 91.064 89.464 89.784 91.592 88.548L97.468 85.124zM65.544 45.412L65.556 62.94L80.712 71.796V54.228C74.892 50.852 70.044 48.036 65.544 45.412zM86.052 48.584A1.708 1.708 0 0 1 87.244 49.616A1.8800000000000001 1.8800000000000001 0 0 1 86.932 51.632L86.928 51.64A1.7840000000000003 1.7840000000000003 0 0 1 85.608 52.252A1.796 1.796 0 0 1 83.86 50.748A1.8680000000000003 1.8680000000000003 0 0 1 84.444 48.984A1.576 1.576 0 0 1 85.588 48.516A1.5719999999999998 1.5719999999999998 0 0 1 86.052 48.584zM94.308 42.952A1.6280000000000001 1.6280000000000001 0 0 1 96.068 42.696A1.8200000000000003 1.8200000000000003 0 0 1 97.172 44.152A1.84 1.84 0 0 1 96.364 45.98A1.704 1.704 0 0 1 95.392 46.288A1.6239999999999999 1.6239999999999999 0 0 1 94.508 46.024A1.8759999999999997 1.8759999999999997 0 0 1 93.62 44.504A1.7999999999999998 1.7999999999999998 0 0 1 94.308 42.952zM41.552 52.232A1.8320000000000003 1.8320000000000003 0 0 1 39.792 50.756A1.8239999999999998 1.8239999999999998 0 0 1 41.504 48.528C41.64 48.528 41.784 48.548 41.912 48.58A1.768 1.768 0 0 1 43.168 49.624A1.84 1.84 0 0 1 42.86 51.608A1.708 1.708 0 0 1 41.552 52.232zM89.376 45.928A1.768 1.768 0 0 1 91.108 45.648A1.752 1.752 0 0 1 92.236 46.976A1.8200000000000003 1.8200000000000003 0 0 1 91.68 48.772A1.744 1.744 0 0 1 90.48 49.256A1.84 1.84 0 0 1 88.728 47.696A1.8800000000000001 1.8800000000000001 0 0 1 89.376 45.928zM37.756 48.82A1.68 1.68 0 0 1 36.636 49.26A1.576 1.576 0 0 1 36.02 49.132A1.792 1.792 0 0 1 34.864 47.568C34.8 46.828 35.144 46.128 35.732 45.784A1.704 1.704 0 0 1 36.62 45.52A1.8239999999999998 1.8239999999999998 0 0 1 37.38 45.696H37.384A1.744 1.744 0 0 1 38.4 47.032A1.86 1.86 0 0 1 37.756 48.82zM63.796 103.332A1.696 1.696 0 0 1 63.5 103.304A1.8239999999999998 1.8239999999999998 0 0 1 62.092 102.268V102.26A1.7999999999999998 1.7999999999999998 0 0 1 62.196 100.492A1.8440000000000003 1.8440000000000003 0 0 1 64.1 99.68H64.108L64.12 99.684A1.752 1.752 0 0 1 65.584 101.032C65.744 101.632 65.584 102.264 65.156 102.712A1.8239999999999998 1.8239999999999998 0 0 1 63.796 103.332zM32.6 46.04A1.672 1.672 0 0 1 30.872 46.04A1.86 1.86 0 0 1 29.948 44.4C29.948 43.704 30.316 43.068 30.892 42.768C31.132 42.628 31.412 42.552 31.708 42.552A1.8119999999999998 1.8119999999999998 0 0 1 32.684 42.848A1.816 1.816 0 0 1 33.528 44.48A1.7840000000000003 1.7840000000000003 0 0 1 32.6 46.04zM64.76 91.18A1.92 1.92 0 0 1 63.724 91.488A1.7999999999999998 1.7999999999999998 0 0 1 62.82 91.248A1.7599999999999998 1.7599999999999998 0 0 1 61.888 89.788A1.776 1.776 0 0 1 62.6 88.192C62.92 87.94 63.308 87.808 63.736 87.808A1.9519999999999997 1.9519999999999997 0 0 1 64.528 87.984H64.532A1.7719999999999998 1.7719999999999998 0 0 1 65.62 89.504A1.8320000000000003 1.8320000000000003 0 0 1 64.76 91.184zM62.48 94.212C62.82 93.892 63.248 93.724 63.72 93.724A1.956 1.956 0 0 1 64.52 93.9A1.796 1.796 0 0 1 65.62 95.54A1.796 1.796 0 0 1 64.676 97.176A1.9519999999999997 1.9519999999999997 0 0 1 63.74 97.416A1.744 1.744 0 0 1 62.764 97.128A1.848 1.848 0 0 1 61.892 95.72V95.708A1.768 1.768 0 0 1 62.484 94.212z" />
    <glyph glyph-name="eos"
      unicode="&#xEA3E;"
      horiz-adv-x="128" d=" M64 0C28.652 0 0 28.652 0 64S28.652 128 64 128S128 99.348 128 64S99.348 0 64 0zM42.288 81.812L32.408 36.676A1.2880000000000003 1.2880000000000003 0 0 1 33.028 35.224L63.32 16.244C63.544 16.104 63.784 16.044 64.012 16.044A1.268 1.268 0 0 1 64.708 16.244L95 35.224A1.2880000000000003 1.2880000000000003 0 0 1 95.616 36.676L85.736 81.812A1.2880000000000003 1.2880000000000003 0 0 1 85.504 82.332L65.064 110.26A1.244 1.244 0 0 1 64.012 110.788A1.244 1.244 0 0 1 62.964 110.26L42.524 82.328A1.2880000000000003 1.2880000000000003 0 0 1 42.288 81.808zM36.708 44.344L43.776 76.624L47.816 63.94L36.708 44.344zM35.844 37.624L48.872 60.616L56.192 37.628H35.84zM38.104 35.064H57.008L61.72 20.268L38.104 35.068zM49.532 66.976L44.96 81.328L62.72 105.588V90.244L49.532 66.976zM64.012 21.5L59.692 35.068H68.332L64.012 21.5zM66.308 20.268L71.02 35.068H89.924L66.308 20.268zM84.252 76.624L91.316 44.344L80.212 63.94L84.252 76.62zM78.492 66.976L65.308 90.24V105.588L83.068 81.328L78.492 66.976zM92.18 37.628H71.84L79.16 60.616L92.184 37.628zM64.012 87.336L77.436 63.652L69.148 37.628H58.88L50.592 63.652L64.012 87.336z" />
    <glyph glyph-name="etc"
      unicode="&#xEA3F;"
      horiz-adv-x="128" d=" M64 0C28.652 0 0 28.652 0 64S28.652 128 64 128S128 99.348 128 64S99.348 0 64 0zM37.08 68.984L66.248 80.916L94.52 68.68L66.2 112L37.08 68.984zM37.168 55.748L66.56 16L96 55.748L66.292 39.38L37.168 55.748zM66.38 75.08L36 62.672L66.38 46.304L95.912 62.324L66.38 75.084z" />
    <glyph glyph-name="eth"
      unicode="&#xEA40;"
      horiz-adv-x="128" d=" M64 0C28.652 0 0 28.652 0 64S28.652 128 64 128S128 99.348 128 64S99.348 0 64 0zM95.976 63.124L65.992 112L36 63.12L65.992 45.708L95.976 63.124zM96 57.536L65.992 40.132L36 57.532L65.992 16.02L96 57.536z M65.992 112V76.52L95.98 63.12zM65.992 40.128V16.02L96 57.536z M65.992 45.708L95.98 63.12L65.992 76.512z M36 63.12L65.992 45.708V76.512z" />
    <glyph glyph-name="ethos"
      unicode="&#xEA41;"
      horiz-adv-x="128" d=" M64.14 70.856A8.752 8.752 0 0 1 72.776 79.608A6.791999999999999 6.791999999999999 0 0 0 75.8 85.288A6.820000000000001 6.820000000000001 0 0 0 85.708 82.728C86.62 80.924 86.7 78.812 85.92 76.948A6.904 6.904 0 0 0 81.652 73.072A6.840000000000001 6.840000000000001 0 0 0 79.612 72.768A8.752 8.752 0 0 1 70.88 63.464A8.752 8.752 0 0 1 79.616 55.232A6.776 6.776 0 0 0 85.292 52.208C86.568 50.308 86.812 47.896 85.94 45.776A6.871999999999999 6.871999999999999 0 0 0 82.32 42.104A6.892 6.892 0 0 0 76.956 42.084A6.908 6.908 0 0 0 73.94 44.572A6.784 6.784 0 0 0 72.776 48.392A8.752 8.752 0 0 1 63.976 57.144C59.136 57.144 55.224 53.224 55.224 48.392A6.8 6.8 0 0 0 52.2 42.712A6.824 6.824 0 0 0 43.464 43.636V43.644A6.840000000000001 6.840000000000001 0 0 0 48.384 55.232A8.752 8.752 0 0 1 57.104 64.792A8.752 8.752 0 0 1 48.384 72.768C47.468 72.768 46.564 72.948 45.724 73.3A6.904 6.904 0 0 0 42.708 75.792A6.828 6.828 0 0 0 45.724 85.912A6.892 6.892 0 0 0 51.044 85.912C52.268 85.392 53.316 84.528 54.06 83.428C54.82 82.3 55.228 80.968 55.22 79.608A8.752 8.752 0 0 1 64.14 70.856zM64 98.296A24.324 24.324 0 0 1 31.168 96.828A24.344 24.344 0 0 1 29.688 63.996A24.347999999999995 24.347999999999995 0 0 1 30.86 31.488A24.34 24.34 0 0 1 63.996 29.7A24.336 24.336 0 0 1 97.076 31.42A24.376 24.376 0 0 1 98.304 64.008A24.371999999999996 24.371999999999996 0 0 1 101.28 90.728A24.412 24.412 0 0 1 94.16 99.14L94.14 99.152A24.34 24.34 0 0 1 64 98.3zM64 0C28.652 0 0 28.652 0 64S28.652 128 64 128S128 99.348 128 64S99.348 0 64 0z M57.1 64.788A8.752 8.752 0 0 0 48.384 55.228C47.024 55.236 45.696 54.828 44.568 54.068A6.904 6.904 0 0 1 42.08 51.052A6.840000000000001 6.840000000000001 0 0 1 43.464 43.644V43.636A6.824 6.824 0 0 1 52.2 42.716A6.8 6.8 0 0 1 55.22 48.396A8.752 8.752 0 0 0 64.024 57.144C59.192 57.144 55.272 53.224 55.272 48.392A24.336 24.336 0 0 1 64 29.7A24.34 24.34 0 0 0 30.864 31.488A24.347999999999995 24.347999999999995 0 0 0 29.692 63.996A24.344 24.344 0 0 1 48.388 55.26A8.752 8.752 0 0 1 57.108 64.788zM98.3 64.008A24.324 24.324 0 0 1 79.616 72.74A8.752 8.752 0 0 1 70.86 64.012C70.86 68.848 74.78 72.768 79.612 72.768A6.840000000000001 6.840000000000001 0 0 1 85.92 76.948A6.884 6.884 0 0 1 85.704 82.724A6.820000000000001 6.820000000000001 0 0 1 75.796 85.284A6.791999999999999 6.791999999999999 0 0 1 72.772 79.604A8.752 8.752 0 1 0 55.272 79.608A24.34 24.34 0 0 0 94.14 99.152L94.156 99.14A24.359999999999996 24.359999999999996 0 0 0 98.304 64.008z" />
    <glyph glyph-name="etn"
      unicode="&#xEA42;"
      horiz-adv-x="128" d=" M64 0C28.652 0 0 28.652 0 64S28.652 128 64 128S128 99.348 128 64S99.348 0 64 0zM79.516 74.124L86.82 68.596L91.436 65.108L86.284 62.476L75.924 57.188L79.476 54.732L84.448 51.296L79.08 48.528L46.128 31.544A36.928 36.928 0 0 1 64 26.956C84.48 26.956 101.08 43.552 101.08 64.02A36.9 36.9 0 0 1 92.472 87.772L79.512 74.124zM48.484 51.988L41.18 57.512L36.564 61.004L41.716 63.632L52.076 68.924L48.524 71.38L43.552 74.812L48.92 77.584L83.624 95.472A36.92 36.92 0 0 1 64 101.088C43.52 101.088 26.92 84.492 26.92 64.02C26.92 54.504 30.508 45.828 36.404 39.264L48.484 51.984zM34.144 36.88A40.176 40.176 0 0 0 23.624 64.016C23.624 86.268 41.74 104.372 64 104.372A40.16 40.16 0 0 0 86.96 97.188L90.572 99.048A43.788 43.788 0 0 1 64 108C39.74 108 20 88.272 20 64.02A43.8 43.8 0 0 1 31.644 34.252L34.144 36.884zM94.736 90.16A40.16 40.16 0 0 0 104.376 64.024C104.376 41.776 86.26 23.672 64 23.672A40.144 40.144 0 0 0 42.684 29.772L38.988 27.864A43.764 43.764 0 0 1 64 20.044C88.26 20.044 108 39.772 108 64.02C108 75.02 103.944 85.08 97.248 92.796L94.736 90.156zM43.368 60.4L53.908 52.428L30.1 27.356L77.416 51.748L68.868 57.652L84.632 65.704L74.092 73.676L97.9 98.748L50.584 74.356L59.132 68.452L43.368 60.4z" />
    </font>
</defs>
</svg>
